Скачать через торрент Симпсоны The Simpsons Фильм бесплатно в хорошем качестве torrent

Скачивайте на UnionPeer.org фильмы через торрент без регистрации. Новинки кино в хорошем качестве через торрент. На UnionPeer.org можно скачать через торрент фильмы 2014 и 2015 годов. Самые новые фильмы.

Скачать торрент Симпсоны The Simpsons бесплатно через .torrent фильм мультфильм сериал

Статистика раздачи
Размер:  6.43 GB   |    Зарегистрирован:  1 месяц   |    .torrent скачан:  94 раза   |   
Раздают:  1  
   
загрузка...
 
Автор Сообщение

Galfimbul

avatar Galfimbul


[url=/tag/7/][/url]
[url=/tag/7/][/url]
Симпсоны [url=/tag/7/][/url] /The Simpsons [url=/tag/7/][/url]

Год выхода: 2018 [url=/tag/7/][/url]
Жанр: Комедия, сатира, семейный, пародия [url=/tag/7/][/url]
Режиссер: Марк Керклэнд, Джефф Линч, Сьюзи Диттер, Мэтт Гроенинг, Дэвид Сильверман, Стивен Дин Мур, Джим Рирдон [url=/tag/7/][/url]
В ролях: Дэн Кастелланета, Джули Кавнер, Нэнси Картрайт, Ярдли Смит, Гарри Ширер, Хэнк Азария, Памела Хейден, Тресс МакНилл, Карл Видерготт, Мэгги Росвэл и другие [url=/tag/7/][/url]
[url=/tag/7/][/url]
О фильме: [url=/tag/7/][/url]
«Симпсоны» - это пародия на всех и вся, и на типичный американский уклад жизни в целом. Главные герои этого мультсериала - показательная в своей типичности семья Симпсонов - обжора и лежебока, недалекий Гомер, его жена-умница домохозяйка Мардж, их дети сорванец Барт, одаренная умная девочка Лиза и совсем еще младенец Мэгги. Каждая серия не только богата юмором, но и высмеивает одну из волнующих современного человека тем, так что сериал с успехом пережил более 25 сезонов и продолжает успешное шествие по экранам. Отрезки, шутки, сами герои Симпсонов стали неотъемлемой частью современной поп-культуры, а их имена стали именами нарицательными. [url=/tag/7/][/url]
[url=/tag/7/][/url]
[url=/tag/7/][/url]
Страна: США [url=/tag/7/][/url]
Продолжительность: ~ 00:22:00 серия [url=/tag/7/][/url]
Перевод: Профессиональный (многоголосый закадровый) - VO-production [url=/tag/7/][/url]
[url=/tag/7/][/url]
Файл [url=/tag/7/][/url]
Кодек: MPEG-4 AVC [url=/tag/7/][/url]
Качество: WEBRip 1080p (источник: 1080p AMZN WEBRip QOQ, иногда указано как WEB-DL) [url=/tag/7/][/url]
Видео: 1920x1080 (16:9), 23.976 fps, ~ 2700 kb/s [url=/tag/7/][/url]
Звук: [url=/tag/7/][/url]
• Русская дорожка: AC3, 48KHz, 2 ch, 192 kb/s [url=/tag/7/][/url]
• Aнглийская дорожка: E-AC3, 48KHz, 6 ch, 640 kb/s [url=/tag/7/][/url]
Субтитры: [url=/tag/7/][/url]
• Русские (форсированные) [url=/tag/7/][/url]
• Английские (SDH) [url=/tag/7/][/url]
[url=/tag/7/][/url]
Без рекламы! [url=/tag/7/][/url]
[url=/tag/7/][/url]
General [url=/tag/7/][/url] 
Unique ID : 148171703310787327011434710867034135744 (0x6F78D50007BA8A3862819C2D2C3E5CC0) [url=/tag/7/][/url]
Format : Matroska [url=/tag/7/][/url]
Format version : Version 4 [url=/tag/7/][/url]
File size : 532 MiB [url=/tag/7/][/url]
Duration : 20 min 58 s [url=/tag/7/][/url]
Overall bit rate : 3 544 kb/s [url=/tag/7/][/url]
Encoded date : UTC 2018-12-12 21:09:36 [url=/tag/7/][/url]
Writing application : mkvmerge v29.0.0 ('Like It Or Not') 64-bit [url=/tag/7/][/url]
Writing library : libebml v1.3.6 + libmatroska v1.4.9 [url=/tag/7/][/url]
[url=/tag/7/][/url]
Video [url=/tag/7/][/url]
ID : 1 [url=/tag/7/][/url]
Format : AVC [url=/tag/7/][/url]
Format/Info : Advanced Video Codec [url=/tag/7/][/url]
Format profile : [email protected] [url=/tag/7/][/url]
Format settings : CABAC / 4 Ref Frames [url=/tag/7/][/url]
Format settings, CABAC : Yes [url=/tag/7/][/url]
Format settings, ReFrames : 4 frames [url=/tag/7/][/url]
Codec ID : V_MPEG4/ISO/AVC [url=/tag/7/][/url]
Duration : 20 min 58 s [url=/tag/7/][/url]
Bit rate : 2 710 kb/s [url=/tag/7/][/url]
Width : 1 920 pixels [url=/tag/7/][/url]
Height : 1 080 pixels [url=/tag/7/][/url]
Display aspect ratio : 16:9 [url=/tag/7/][/url]
Frame rate mode : Constant [url=/tag/7/][/url]
Frame rate : 23.976 (24000/1001) FPS [url=/tag/7/][/url]
Color space : YUV [url=/tag/7/][/url]
Chroma subsampling : 4:2:0 [url=/tag/7/][/url]
Bit depth : 8 bits [url=/tag/7/][/url]
Scan type : Progressive [url=/tag/7/][/url]
Bits/(Pixel*Frame) : 0.055 [url=/tag/7/][/url]
Stream size : 407 MiB (76%) [url=/tag/7/][/url]
Default : Yes [url=/tag/7/][/url]
Forced : No [url=/tag/7/][/url]
Color range : Limited [url=/tag/7/][/url]
Color primaries : BT.709 [url=/tag/7/][/url]
Transfer characteristics : BT.709 [url=/tag/7/][/url]
Matrix coefficients : BT.709 [url=/tag/7/][/url]
[url=/tag/7/][/url]
Audio #1 [url=/tag/7/][/url]
ID : 2 [url=/tag/7/][/url]
Format : AC-3 [url=/tag/7/][/url]
Format/Info : Audio Coding 3 [url=/tag/7/][/url]
Commercial name : Dolby Digital [url=/tag/7/][/url]
Codec ID : A_AC3 [url=/tag/7/][/url]
Duration : 20 min 58 s [url=/tag/7/][/url]
Bit rate mode : Constant [url=/tag/7/][/url]
Bit rate : 192 kb/s [url=/tag/7/][/url]
Channel(s) : 2 channels [url=/tag/7/][/url]
Channel layout : L R [url=/tag/7/][/url]
Sampling rate : 48.0 kHz [url=/tag/7/][/url]
Frame rate : 31.250 FPS (1536 SPF) [url=/tag/7/][/url]
Bit depth : 16 bits [url=/tag/7/][/url]
Compression mode : Lossy [url=/tag/7/][/url]
Stream size : 28.8 MiB (5%) [url=/tag/7/][/url]
Language : Russian [url=/tag/7/][/url]
Service kind : Complete Main [url=/tag/7/][/url]
Default : Yes [url=/tag/7/][/url]
Forced : No [url=/tag/7/][/url]
[url=/tag/7/][/url]
Audio #2 [url=/tag/7/][/url]
ID : 3 [url=/tag/7/][/url]
Format : E-AC-3 [url=/tag/7/][/url]
Format/Info : Enhanced AC-3 [url=/tag/7/][/url]
Commercial name : Dolby Digital Plus [url=/tag/7/][/url]
Codec ID : A_EAC3 [url=/tag/7/][/url]
Duration : 20 min 58 s [url=/tag/7/][/url]
Bit rate mode : Constant [url=/tag/7/][/url]
Bit rate : 640 kb/s [url=/tag/7/][/url]
Channel(s) : 6 channels [url=/tag/7/][/url]
Channel layout : L R C LFE Ls Rs [url=/tag/7/][/url]
Sampling rate : 48.0 kHz [url=/tag/7/][/url]
Frame rate : 31.250 FPS (1536 SPF) [url=/tag/7/][/url]
Compression mode : Lossy [url=/tag/7/][/url]
Stream size : 96.0 MiB (18%) [url=/tag/7/][/url]
Language : English [url=/tag/7/][/url]
Service kind : Complete Main [url=/tag/7/][/url]
Default : No [url=/tag/7/][/url]
Forced : No [url=/tag/7/][/url]
[url=/tag/7/][/url]
Text #1 [url=/tag/7/][/url]
ID : 4 [url=/tag/7/][/url]
Format : UTF-8 [url=/tag/7/][/url]
Codec ID : S_TEXT/UTF8 [url=/tag/7/][/url]
Codec ID/Info : UTF-8 Plain Text [url=/tag/7/][/url]
Duration : 2 s 500 ms [url=/tag/7/][/url]
Bit rate : 156 b/s [url=/tag/7/][/url]
Count of elements : 1 [url=/tag/7/][/url]
Stream size : 49.0 Bytes (0%) [url=/tag/7/][/url]
Title : Forced [url=/tag/7/][/url]
Language : Russian [url=/tag/7/][/url]
Default : Yes [url=/tag/7/][/url]
Forced : Yes [url=/tag/7/][/url]
[url=/tag/7/][/url]
Text #2 [url=/tag/7/][/url]
ID : 5 [url=/tag/7/][/url]
Format : UTF-8 [url=/tag/7/][/url]
Codec ID : S_TEXT/UTF8 [url=/tag/7/][/url]
Codec ID/Info : UTF-8 Plain Text [url=/tag/7/][/url]
Duration : 20 min 44 s [url=/tag/7/][/url]
Bit rate : 99 b/s [url=/tag/7/][/url]
Count of elements : 498 [url=/tag/7/][/url]
Stream size : 15.1 KiB (0%) [url=/tag/7/][/url]
Title : English (SDH) [url=/tag/7/][/url]
Language : English [url=/tag/7/][/url]
Default : No [url=/tag/7/][/url]
Forced : No
Источник http://BlaTor.org

Трекер:  [ 16-Дек-2018 03:10 ]

  

Скачать .torrent

Размер .torrent файла 130 KB


Размер: 6.43 GB
Хэш (hash) релиза: 740ae33d1f6f1f3e69eebbcdf7474f8d71841c64
Подписка на обновления:

Торренты, похожие на Симпсоны The Simpsons скачать торрент

Форум Название Автор Размер S L Добавлен
Мультфильмы 2016-2018 (Новинки мультфильмов) ·%· Симпсоны / The Simpsons [30х01-11 из 21] (2018) WEBRip 720p | SunshineStudio Galfimbul 38232478523.56 GB 0 0 1547114410

13:00

10-Янв-19

Мультфильмы 2016-2018 (Новинки мультфильмов) ·%· Симпсоны / The Simpsons [30x01-09 из 21] (2018) WEBRip 1080p | ColdFilm Galfimbul 70264903276.54 GB 0 0 1543843371

16:22

3-Дек-18

Мультфильмы 2016-2018 (Новинки мультфильмов) ·%· Симпсоны / The Simpsons [30x01-09 из 21] (2018) WEBRip | ColdFilm Galfimbul 27078962162.52 GB 0 0 1543835549

14:12

3-Дек-18

Мультфильмы 2016-2018 (Новинки мультфильмов) ·%· Симпсоны / The Simpsons [30x01-08 из 21] (2018) WEBRip 1080p | ColdFilm Galfimbul 62542877475.82 GB 0 0 1543266068

00:01

27-Ноя-18

Мультфильмы 2016-2018 (Новинки мультфильмов) ·%· Симпсоны / The Simpsons [30x01-08 из 21] (2018) WEBRip | ColdFilm Galfimbul 24065837822.24 GB 0 0 1543266058

00:00

27-Ноя-18

Мультфильмы 2016-2018 (Новинки мультфильмов) ·%· Симпсоны / The Simpsons [30x01-08 из 21] (2018) WEBRip 720p | ColdFilm Galfimbul 43504807214.05 GB 0 0 1543257657

21:40

26-Ноя-18

Мультфильмы 2016-2018 (Новинки мультфильмов) ·%· Симпсоны / The Simpsons [30x01-07 из 21] (2018) WEBRip 1080p | ColdFilm Galfimbul 54507020345.08 GB 0 0 1542739239

21:40

20-Ноя-18

Мультфильмы 2016-2018 (Новинки мультфильмов) ·%· Симпсоны / The Simpsons [30x01-07 из 21] (2018) WEBRip 720p | ColdFilm Galfimbul 38003615823.54 GB 0 0 1542726662

18:11

20-Ноя-18

Мультфильмы 2016-2018 (Новинки мультфильмов) ·%· Симпсоны / The Simpsons [30x01-07 из 21] (2018) WEBRip | ColdFilm Galfimbul 20929710321.95 GB 0 0 1542703882

11:51

20-Ноя-18

Мультфильмы 2016-2018 (Новинки мультфильмов) ·%· Симпсоны / The Simpsons [30x01-04 из 21] (2018) WEBRip | GreenРай Studio Galfimbul 11338076161.06 GB 0 0 1540973779

11:16

31-Окт-18

Мультфильмы 2016-2018 (Новинки мультфильмов) ·%· Симпсоны / The Simpsons [30x01-02 из 21] (2018) WEBRip 1080p | Good People Galfimbul 13983228881.3 GB 0 0 1539927130

08:32

19-Окт-18

Мультфильмы 2016-2018 (Новинки мультфильмов) ·%· Симпсоны / The Simpsons [30x01-02 из 21] (2018) WEB-DLRip | Good People Galfimbul 527138816503 MB 0 0 1539817306

02:01

18-Окт-18

Мультфильмы 2016-2018 (Новинки мультфильмов) ·%· Симпсоны / The Simpsons [30x01 из 21] (2018) WEBRip 1080p | IdeaFilm Galfimbul 12234608901.14 GB 0 0 1538508153

22:22

2-Окт-18

Мультфильмы 2016-2018 (Новинки мультфильмов) ·%· Симпсоны / The Simpsons [30x01 из 21] (2018) WEBRip | OMSKBIRD Galfimbul 318369792304 MB 0 0 1538457799

08:23

2-Окт-18

Мультфильмы 2016-2018 (Новинки мультфильмов) ·%· Симпсоны / The Simpsons [30x01 из 21] (2018) WEBRip 1080p | OMSKBIRD Galfimbul 732142011698 MB 0 0 1538457786

08:23

2-Окт-18

Мультфильмы 2016-2018 (Новинки мультфильмов) ·%· Симпсоны / The Simpsons [30x01 из 21] (2018) WEBRip 720p | OMSKBIRD Galfimbul 491678163469 MB 0 0 1538456429

08:00

2-Окт-18

Мультсериалы ·· Симпсоны / The Simpsons / Выпуски: 2,4,5,7-11,13 / Сезоны 2-11 / (Дэвид Сильверман / David Silverman) [1989-2000, комедия, сатира, VHSRip] MVO+DVO (Гемини-Фильм) Galfimbul 5702914662453.11 GB 0 0 1526153047

22:24

12-Май-18

Мультсериалы ·· Симпсоны / The Simpsons / Сезон: 28 / Серии: 1-22 из 22 (Мэтт Гроунинг / Matt Groening) [2016, США, комедия, WEB-DL 1080p] MVO (2x2) + Original Galfimbul 2027856552518.89 GB 0 0 1522619655

00:54

2-Апр-18

Мультсериалы ·· Симпсоны / The Simpsons / Сезон: 15, 16, 17 / Серии: 22, 21, 22 из 65 (Мэтт Гроунинг / Matt Groening) [2003, 2004, 2005, США, мультсериал, BDRip] MVO Galfimbul 1281675819011.94 GB 0 0 1516112844

17:27

16-Янв-18

Еще никто не оставлял запись к записи скачать торрент Симпсоны The Simpsons . Будь первым!

!Обратная связь