Скачать через торрент Дневник пастыря First Reformed Фильм бесплатно в хорошем качестве torrent

Скачивайте на UnionPeer.org фильмы через торрент без регистрации. Новинки кино в хорошем качестве через торрент. На UnionPeer.org можно скачать через торрент фильмы 2014 и 2015 годов. Самые новые фильмы.

Скачать торрент Дневник пастыря First Reformed бесплатно через .torrent фильм мультфильм сериал

Статистика раздачи
Размер:  679 MB   |    Зарегистрирован:  8 дней   |    .torrent скачан:  104 раза   |   
Раздают:  1  
   
загрузка...
 
Автор Сообщение

Galfimbul

avatar Galfimbul


Дневник пастыря /First Reformed

Год выхода: 2017
Жанр: Триллер, драма
Режиссер: Пол Шредер
В ролях: Аманда Сайфред, Итэн Хоук, Седрик «Развлекатель», Виктория Хилл, Майкл Гэстон, Филип Эттинджер, Ван Хэнсис, Кристина Алабадо, Билл Хоаг, Иланна Уайт.

О фильме: Преподобный Толлер, страдающий от потери сына в Ираке и последовавшего развода, ищет утешения под сводами церкви и в алкоголе. Молодая прихожанка Мэри обращается к нему с просьбой поговорить с её мужем, экологом-активистом. А когда тот кончает жизнь самоубийством, Толлер никак не может выкинуть из головы беседу с ним и начинает читать в интернете про загрязнение окружающей среды.



Страна: США
Студия: Arclight Films, Fibonacci Films...
Продолжительность: 01:53:13
Перевод: Дубляж [iTunes]
Субтитры: Русские, форсированные (стилизованные, на надписи и прочее) - вшитые

Файл
Кодек: XviD
Качество: HDRip
Видео: 640x480 (1.33:1), 23.976 fps, XviD build 73 ~700 kbps avg, 0.10 bit/pixel
Звук: 48 kHz, MPEG Layer 3, 2 ch, ~128.00 kbps avg
General
Complete name : First.Reformed.2017.HDRip.ot.Portablius.avi
Format : AVI
Format/Info : Audio Video Interleave
File size : 679 MiB
Duration : 1 h 53 min
Overall bit rate : 838 kb/s
Writing application : VirtualDubMod 1.5.10.3 | www.virtualdub-fr.org || (build 2550/release)
Writing library : VirtualDubMod build 2550/release

Video
ID : 0
Format : MPEG-4 Visual
Format profile : Advanced [email protected]
Format settings, BVOP : 1
Format settings, QPel : No
Format settings, GMC : No warppoints
Format settings, Matrix : Custom
Codec ID : XVID
Codec ID/Hint : XviD
Duration : 1 h 53 min
Bit rate : 701 kb/s
Width : 640 pixels
Height : 480 pixels
Display aspect ratio : 4:3
Frame rate : 23.976 (24000/1001) FPS
Color space : YUV
Chroma subsampling : 4:2:0
Bit depth : 8 bits
Scan type : Progressive
Compression mode : Lossy
Bits/(Pixel*Frame) : 0.095
Stream size : 567 MiB (84%)
Writing library : XviD 73

Audio
ID : 1
Format : MPEG Audio
Format version : Version 1
Format profile : Layer 3
Codec ID : 55
Codec ID/Hint : MP3
Duration : 1 h 53 min
Bit rate mode : Constant
Bit rate : 128 kb/s
Channel(s) : 2 channels
Sampling rate : 48.0 kHz
Compression mode : Lossy
Stream size : 104 MiB (15%)
Alignment : Aligned on interleaves
Interleave, duration : 42 ms (1.00 video frame)
Interleave, preload duratio : 504 ms
Writing library : LAME3.99r
Encoding settings : -m s -V 4 -q 2 -lowpass 17 -b 128
Источник http://BlaTor.org

Трекер:  [ 11-Окт-2018 12:50 ]

  

Скачать .torrent

Размер .torrent файла 13 KB


Размер: 679 MB
Хэш (hash) релиза: 032ce63e50d882d3be885fc3507a5ec74576d6f0
Подписка на обновления:

Еще никто не оставлял запись к записи скачать торрент Дневник пастыря First Reformed . Будь первым!

!Обратная связь