Скачать через торрент Законы акульего мира The laws of Jaws Фильм бесплатно в хорошем качестве torrent

Скачивайте на UnionPeer.org фильмы через торрент без регистрации. Новинки кино в хорошем качестве через торрент. На UnionPeer.org можно скачать через торрент фильмы 2014 и 2015 годов. Самые новые фильмы.

Скачать торрент Законы акульего мира The laws of Jaws бесплатно через .torrent фильм мультфильм сериал

Статистика раздачи
Размер:  2.25 GB   |    Зарегистрирован:  4 месяца 17 дней   |    .torrent скачан:  121 раз   |   
Раздают:  1  
   
загрузка...
 
Автор Сообщение

Galfimbul

avatar Galfimbul


Законы акульего мира / The laws of Jaws

Год выпуска: 2018
Страна: USA
Студия: Lycky 8 TV
Жанр: Документальный
Продолжительность: 00:43:59
Перевод: Одноголосый закадровый
Русские субтитры: нет

Режиссер: Грегори Генри / Gregory Henry

Описание:

Отмечая 30-летие "Недели акул", мы погрузимся в океанские глубины и познакомимся ближе с одними из самых опасных хищников на планете.
Сэмпл: http://multi-up.com/1205238

Тип релиза: HDTV 1080i
Контейнер: TS

Видео: AVC, 1920x1080, (16:9), 25 fps, 6 191 kb/s
Аудио: Russian, AC3, 48 kHz, 6 ch; 384 kbps
Аудио 2: English, AC3, 48 kHz, 6 ch; 384 kbps
GeneralID : 1 (0x1)Complete name : C:\Законы акульего мира - The laws of Jaws_HDTV 1080i_RUS_ENG-dds.tsFormat : MPEG-TSFile size : 2.25 GiBDuration : 43 min 59 sOverall bit rate mode : VariableOverall bit rate : 7 329 kb/s

VideoID : 325 (0x145)Menu ID : 12105 (0x2F49)Format : AVCFormat/Info : Advanced Video CodecFormat profile : [email protected] settings : CABAC / 4 Ref FramesFormat settings, CABAC : YesFormat settings, RefFrames : 4 framesCodec ID : 27Duration : 43 min 59 sBit rate : 6 191 kb/sWidth : 1 920 pixelsHeight : 1 080 pixelsDisplay aspect ratio : 16:9Frame rate : 25.000 FPSStandard : ComponentColor space : YUVChroma subsampling : 4:2:0Bit depth : 8 bitsScan type : InterlacedScan type, store method : Separated fieldsScan order : Top Field FirstBits/(Pixel*Frame) : 0.119Stream size : 1.90 GiB (84%)Color range : LimitedColor primaries : BT.709Transfer characteristics : BT.709Matrix coefficients : BT.709

Audio #1ID : 405 (0x195)Menu ID : 12105 (0x2F49)Format : AC-3Format/Info : Audio Coding 3Codec ID : 6Duration : 43 min 59 sBit rate mode : ConstantBit rate : 384 kb/sChannel(s) : 6 channelsChannel positions : Front: L C R, Side: L R, LFESampling rate : 48.0 kHzFrame rate : 31.250 FPS (1536 SPF)Bit depth : 16 bitsCompression mode : LossyDelay relative to video : -40 msStream size : 121 MiB (5%)Language : RussianService kind : Complete Main

Audio #2ID : 425 (0x1A9)Menu ID : 12105 (0x2F49)Format : AC-3Format/Info : Audio Coding 3Codec ID : 6Duration : 43 min 59 sBit rate mode : ConstantBit rate : 384 kb/sChannel(s) : 6 channelsChannel positions : Front: L C R, Side: L R, LFESampling rate : 48.0 kHzFrame rate : 31.250 FPS (1536 SPF)Bit depth : 16 bitsCompression mode : LossyDelay relative to video : -40 msStream size : 121 MiB (5%)Language : EnglishService kind : Complete Main


Трекер:  [ 02-Авг-2018 17:36 ]

  

Скачать .torrent

Размер .torrent файла 11 KB


Размер: 2.25 GB
Хэш (hash) релиза: f772e47c2a98e67885570e609214e5c220e6a385
Подписка на обновления:

Еще никто не оставлял запись к записи скачать торрент Законы акульего мира The laws of Jaws . Будь первым!

!Обратная связь