Скачать через торрент Непокорные The Defiant Ones Фильм бесплатно в хорошем качестве torrent

Скачивайте на UnionPeer.org фильмы через торрент без регистрации. Новинки кино в хорошем качестве через торрент. На UnionPeer.org можно скачать через торрент фильмы 2014 и 2015 годов. Самые новые фильмы.

Скачать торрент Непокорные The Defiant Ones бесплатно через .torrent фильм мультфильм сериал

Статистика раздачи
Размер:  8 GB   |    Зарегистрирован:  4 месяца 17 дней   |    .torrent скачан:  63 раза   |   
Раздают:  1  
   
загрузка...
 
Автор Сообщение

Galfimbul

avatar Galfimbul


Непокорные / The Defiant Ones

Год выпуска: 2017
Страна: США
Студия: The Defiant Ones Productions
Жанр: Документальный, биография, музыка
Продолжительность: 4 x ~ 01:05:00
Перевод: Профессиональный (многоголосый закадровый)

Режиссер: Аллен Хьюз

Описание: В "Непокорных" рассказывается о партнерстве Джимми Айовина и доктора Дре - один - сын грузчика из Бруклина, второй родом из Комптона - и о их важной роли в цепочке событий, повлиявших на современную культуру.



Качество: WEB-DL 720p
Формат: MKV
Видео: MPEG-4 AVC, 1280x720 [16:9], 23.976 fps, ~ 3000 Kbps
Аудио 1: [Русский] AC3, 48 kHz, 6 ch, 384 Kbps - SDI-Media
Аудио 2: [Английский] EAC3, 48 kHz, 6 ch, 640 Kbps
Субтитры: Русские (Forced, Full), английские (SDH)

Ссылка на предыдущие и альтернативные раздачи
Релиз TeamHD - BenderBEST
Общее
Уникальный идентификатор : 213039800156443913115052029824614760190 (0xA045F919979DE08B93A2216DB36F7EFE)
Полное имя : S:\The.Defiant.Ones.S01.720p.AMZN.WEB-DL.Rus.Eng_THD\The.Defiant.Ones.S01E01.720p.AMZN.WEB-DL.Rus.Eng_THD.mkv
Формат : Matroska
Версия формата : Version 4 / Version 2
Размер файла : 1,56 Гбайт
Продолжительность : 55 м.
Режим общего битрейта : Переменный
Общий поток : 4046 Кбит/сек
Название фильма : The Defiant Ones S01E01 - ReJliz TeamHD by BenderBEST
Дата кодирования : UTC 2018-07-28 11:14:23
Программа кодирования : mkvmerge v6.9.1 ('Blue Panther') 32bit built on Apr 18 2014 18:15:44
Библиотека кодирования : libebml v1.3.0 + libmatroska v1.4.1

Видео
Идентификатор : 1
Формат : AVC
Формат/Информация : Advanced Video Codec
Профиль формата : [email protected]
Параметр CABAC формата : Да
Параметр ReFrames формата : 5 кадров
Идентификатор кодека : V_MPEG4/ISO/AVC
Продолжительность : 55 м.
Вид битрейта : Переменный
Битрейт : 2941 Кбит/сек
Максимальный битрейт : 4500 Кбит/сек
Ширина : 1280 пикселей
Высота : 720 пикселей
Соотношение сторон : 16:9
Режим частоты кадров : Постоянный
Частота кадров : 23,976 (24000/1001) кадра/сек
Цветовое пространство : YUV
Субдискретизация насыщенности : 4:2:0
Битовая глубина : 8 бит
Тип развёртки : Прогрессивная
Бит/(Пиксели*Кадры) : 0.133
Размер потока : 1,13 Гбайт (73%)
Язык : English
Default : Да
Forced : Да
Цветовой диапазон : Limited
Основные цвета : BT.709
Характеристики трансфера : BT.709
Коэффициенты матрицы : BT.709

Аудио #1
Идентификатор : 2
Формат : AC-3
Формат/Информация : Audio Coding 3
Расширение режима : CM (complete main)
Параметр Endianness формата : Big
Идентификатор кодека : A_AC3
Продолжительность : 55 м.
Вид битрейта : Постоянный
Битрейт : 384 Кбит/сек
Каналы : 6 каналов
Расположение каналов : Front: L C R, Side: L R, LFE
Частота : 48,0 КГц
Частота кадров : 31,250 кадров/сек (1536 spf)
Метод сжатия : С потерями
Размер потока : 152 Мбайт (9%)
Заголовок : AC3 5.1 @ 384 kbps - MVO, SDI-Media
Язык : Russian
Default : Да
Forced : Да

Аудио #2
Идентификатор : 3
Формат : E-AC-3
Формат/Информация : Audio Coding 3
Параметр Endianness формата : Big
Идентификатор кодека : A_EAC3
Продолжительность : 55 м.
Вид битрейта : Постоянный
Битрейт : 640 Кбит/сек
Каналы : 6 каналов
Расположение каналов : Front: L C R, Side: L R, LFE
Частота : 48,0 КГц
Частота кадров : 187,500 кадров/сек (256 spf)
Метод сжатия : С потерями
Размер потока : 253 Мбайт (16%)
Заголовок : EAC3 5.1 @ 640 kbps
Язык : English
Default : Нет
Forced : Нет

Текст #1
Идентификатор : 4
Формат : UTF-8
Идентификатор кодека : S_TEXT/UTF8
Идентификатор кодека/Информация : UTF-8 Plain Text
Заголовок : Forced
Язык : Russian
Default : Да
Forced : Да

Текст #2
Идентификатор : 5
Формат : UTF-8
Идентификатор кодека : S_TEXT/UTF8
Идентификатор кодека/Информация : UTF-8 Plain Text
Заголовок : Full
Язык : Russian
Default : Нет
Forced : Нет

Текст #3
Идентификатор : 6
Формат : UTF-8
Идентификатор кодека : S_TEXT/UTF8
Идентификатор кодека/Информация : UTF-8 Plain Text
Заголовок : SDH
Язык : English
Default : Нет
Forced : Нет


Трекер:  [ 02-Авг-2018 00:06 ]

  

Скачать .torrent

Размер .torrent файла 41 KB


Размер: 8 GB
Хэш (hash) релиза: 6737aecacefe24a7effae95f2065232ca5db37e1
Подписка на обновления:

Торренты, похожие на Непокорные The Defiant Ones скачать торрент

Форум Название Автор Размер S L Добавлен
Документальные фильмы и телепередачи ·%· Непокорные / The Defiant Ones / Сезон: 1 / Серии: 1-4 из 4 (Аллен Хьюз) [2017, США, Документальный, биография, музыка, WEB-DL 1080p] MVO (SDI-Media) + Original Eng + Sub (Rus, Eng) Galfimbul 2015290369618.77 GB 0 0 1533157581

00:06

2-Авг-18

Еще никто не оставлял запись к записи скачать торрент Непокорные The Defiant Ones . Будь первым!

!Обратная связь