Скачать через торрент Дикий Таиланд Фильм бесплатно в хорошем качестве torrent

Скачивайте на UnionPeer.org фильмы через торрент без регистрации. Новинки кино в хорошем качестве через торрент. На UnionPeer.org можно скачать через торрент фильмы 2014 и 2015 годов. Самые новые фильмы.

Скачать торрент Дикий Таиланд бесплатно через .torrent фильм мультфильм сериал

Статистика раздачи
Размер:  7.67 GB   |    Зарегистрирован:  2 месяца 17 дней   |    .torrent скачан:  80 раз   |   
Раздают:  1  
   
загрузка...
 
Автор Сообщение

Galfimbul

avatar Galfimbul


Дикий Таиланд / Wild Thailand

Год выпуска: 2016
Страна: Великобритания
Студия: BBC Earth
Жанр: Документальный
Продолжительность: 3x ~ 00:52:00
Перевод: Студийный (одноголосый закадровый)
Доп. инфо о переводе: zr media
Русские субтитры: нет

Режиссер: Джонни Роджерс / Johnny Rogers

Описание:

Фильм раскрывает священное царство впечатляющей красоты, ведь Таиланд – это не только пляжи. Страна райских островов, рисовых полей, высоких скал известняка, скрытых храмов и неспящего города Бангкока заставит вас взглянуть по-новому на свой отдых.
[b]1. The Secrets of the South
2. The Central Heartland
3. The Mysterious North
Сэмпл: http://multi-up.com/1205107

Тип релиза: HDTV 1080i
Контейнер: TS

Видео: AVC, 1920x1080, (16:9), 25 fps, 6 830 kb/s
Аудио: Russian, MP2, 48 kHz, 2 ch; 192 kbps
GeneralID : 1 (0x1)Complete name : C:\Дикий Таиланд\2..tsFormat : MPEG-TSFile size : 2.65 GiBDuration : 51 min 26 sOverall bit rate mode : VariableOverall bit rate : 7 389 kb/s

VideoID : 323 (0x143)Menu ID : 12103 (0x2F47)Format : AVCFormat/Info : Advanced Video CodecFormat profile : [email protected] settings : CABAC / 4 Ref FramesFormat settings, CABAC : YesFormat settings, RefFrames : 4 framesFormat settings, GOP : M=4, N=28Codec ID : 27Duration : 51 min 26 sBit rate : 6 830 kb/sWidth : 1 920 pixelsHeight : 1 080 pixelsDisplay aspect ratio : 16:9Frame rate : 25.000 FPSStandard : ComponentColor space : YUVChroma subsampling : 4:2:0Bit depth : 8 bitsScan type : InterlacedScan type, store method : Separated fieldsScan order : Top Field FirstBits/(Pixel*Frame) : 0.132Stream size : 2.45 GiB (92%)Color range : LimitedColor primaries : BT.709Transfer characteristics : BT.709Matrix coefficients : BT.709

AudioID : 403 (0x193)Menu ID : 12103 (0x2F47)Format : MPEG AudioFormat version : Version 1Format profile : Layer 2Codec ID : 3Duration : 51 min 26 sBit rate mode : ConstantBit rate : 192 kb/sChannel(s) : 2 channelsSampling rate : 48.0 kHzFrame rate : 41.667 FPS (1152 SPF)Compression mode : LossyStream size : 70.6 MiB (3%)Language : Russian


Трекер:  [ 31-Июл-2018 15:36 ]

  

Скачать .torrent

Размер .torrent файла 39 KB


Размер: 7.67 GB
Хэш (hash) релиза: 6718237f1c19de7b64e96debd66ba291640fba63
Подписка на обновления:

Еще никто не оставлял запись к записи скачать торрент Дикий Таиланд . Будь первым!

!Обратная связь