Скачать через торрент Наполеон: Египетская кампания Фильм бесплатно в хорошем качестве torrent

Скачивайте на UnionPeer.org фильмы через торрент без регистрации. Новинки кино в хорошем качестве через торрент. На UnionPeer.org можно скачать через торрент фильмы 2014 и 2015 годов. Самые новые фильмы.

Скачать торрент Наполеон: Египетская кампания бесплатно через .torrent фильм мультфильм сериал

Статистика раздачи
Размер:  5.81 GB   |    Зарегистрирован:  4 месяца 19 дней   |    .torrent скачан:  58 раз   |   
Раздают:  1  
   
загрузка...
 
Автор Сообщение

Galfimbul

avatar Galfimbul


Наполеон: Египетская кампания (2 серии из 2) / Bonaparte La Campagne D'Egypte / Napoleon: The Egyptian Campaign

Год выпуска: 2016
Страна: Франция
Студия: Arte France, Docside Zed
Жанр: Документальный, постановочный, война, историческая
Продолжительность: 2x ~00:51:00
Перевод: Студийный (одноголосый закадровый)
Доп. инфо о переводе: sg media / Сергей Антонов
Русские субтитры: нет

Режиссер: Фабрис Урлье / Fabrice Hourlier

Описание:
Со времен Французской революции Англия и Франция - кровные враги. Французское правительство поручает генералу Бонапарту разработку операции по вторжению в Англию. Понимая утопичность этого проекта, Бонапарт предпочитает нанести удар по колониям Англии - источникам ее богатств. Завоевание Египта преследовало две главные цели: создание богатой колонии и нанесение удара по извечному противнику французов - англичанам (французы подразумевали, что Египет будет использоваться как плацдарм для вторжения в Индию). В мае 1798 года, началась Египетская экспедиция Бонапарта, которая стала важной вехой во взаимоотношениях Европы и арабо-османского мира в Новое время. В ней приняло участие 40 тысяч солдат и 10 тысяч матросов, а также 167 различных ученых и художников, задачей которых было исследовать Египет во всех его аспектах. Три года эпических сражений, приключений и крупных археологических открытий. И если Египетская кампания с военной точки зрения была неудачной, то с научной точки зрения это был огромный научный успех - расшифровка иероглифов Шамполионом, рождение египтологии и современной археологии.
Сэмпл: http://multi-up.com/1205094

Тип релиза: HDTV 720p
Контейнер: TS

Видео: AVC, 1280x720 (16:9), 50 fps, 7 552 kb/s, 0.164 bit/pixel
Аудио: Russian, MP2, 48 kHz, 2 ch; 128 kbps
Аудио 2: English, MP2, 48 kHz, 2 ch; 128 kbps
GeneralID : 1 (0x1)Complete name : F:\Наполеон - Египетская кампания_HDTV 720p_RUS_ENG-dds\Наполеон - Египетская кампания. 1 серия.tsFormat : MPEG-TSFile size : 2.89 GiBDuration : 50 min 22 sOverall bit rate mode : VariableOverall bit rate : 8 217 kb/s

VideoID : 305 (0x131)Menu ID : 17105 (0x42D1)Format : AVCFormat/Info : Advanced Video CodecFormat profile : [email protected] settings : CABAC / 5 Ref FramesFormat settings, CABAC : YesFormat settings, RefFrames : 5 framesCodec ID : 27Duration : 50 min 21 sBit rate : 7 552 kb/sWidth : 1 280 pixelsHeight : 720 pixelsDisplay aspect ratio : 16:9Frame rate : 50.000 FPSStandard : ComponentColor space : YUVChroma subsampling : 4:2:0Bit depth : 8 bitsScan type : ProgressiveBits/(Pixel*Frame) : 0.164Stream size : 2.66 GiB (92%)Color range : LimitedColor primaries : BT.709Transfer characteristics : BT.709Matrix coefficients : BT.709

Audio #1ID : 405 (0x195)Menu ID : 17105 (0x42D1)Format : MPEG AudioFormat version : Version 1Format profile : Layer 2Codec ID : 3Duration : 50 min 21 sBit rate mode : ConstantBit rate : 128 kb/sChannel(s) : 2 channelsSampling rate : 48.0 kHzFrame rate : 41.667 FPS (1152 SPF)Compression mode : LossyDelay relative to video : -140 msStream size : 46.1 MiB (2%)Language : Russian

Audio #2ID : 425 (0x1A9)Menu ID : 17105 (0x42D1)Format : MPEG AudioFormat version : Version 1Format profile : Layer 2Codec ID : 3Duration : 50 min 21 sBit rate mode : ConstantBit rate : 128 kb/sChannel(s) : 2 channelsSampling rate : 48.0 kHzFrame rate : 41.667 FPS (1152 SPF)Compression mode : LossyDelay relative to video : -140 msStream size : 46.1 MiB (2%)Language : English


Трекер:  [ 31-Июл-2018 13:36 ]

  

Скачать .torrent

Размер .torrent файла 29 KB


Размер: 5.81 GB
Хэш (hash) релиза: a2ca0a3a13bb3cc075f1f9c311bbaa499eaca92c
Подписка на обновления:

Торренты, похожие на Наполеон: Египетская кампания скачать торрент

Форум Название Автор Размер S L Добавлен
Документальные фильмы и телепередачи ·· Наполеон: Египетская кампания (2 серии из 2) / Bonaparte La Campagne D'Egypte / Napoleon: The Egyptian Campaign (Фабрис Урлье / Fabrice Hourlier) [2016, Документальный, постановочный, война, HDTVRip] Galfimbul 16086691841.5 GB 0 0 1493313480

20:18

27-Апр-17

Документальные фильмы и телепередачи ·· Наполеон: Египетская кампания (2 серии из 2) / Bonaparte La Campagne D'Egypte / Napoleon: The Egyptian Campaign (Фабрис Урлье / Fabrice Hourlier) [2016, Документальный, постановочный, война, HDTVRip 1080p] Galfimbul 35933791253.35 GB 0 0 1493313107

20:11

27-Апр-17

Документальные фильмы и телепередачи ·· Наполеон: Египетская кампания (2 серии из 2) / Bonaparte La Campagne D'Egypte / Napoleon: The Egyptian Campaign (Фабрис Урлье / Fabrice Hourlier) [2016, Документальный, постановочный, война, HDTVRip 720p] Galfimbul 28276471162.63 GB 0 0 1493313100

20:11

27-Апр-17

Документальные фильмы и телепередачи ·· Наполеон: Египетская кампания (1 серия из 2) / Bonaparte La Campagne D'Egypte / Napoleon: The Egyptian Campaign (Фабрис Урлье / Fabrice Hourlier) [2016, Документальный, постановочный, война, HDTVRip] Galfimbul 799723520763 MB 0 0 1492762112

11:08

21-Апр-17

Документальные фильмы и телепередачи ·· Наполеон: Египетская кампания (1 серия из 2) / Bonaparte La Campagne D'Egypte / Napoleon: The Egyptian Campaign (Фабрис Урлье / Fabrice Hourlier) [2016, Документальный, постановочный, война, HDTVRip 1080p] Galfimbul 17863606491.66 GB 0 0 1492682843

13:07

20-Апр-17

Документальные фильмы и телепередачи ·· Наполеон: Египетская кампания (1 серия из 2) / Bonaparte La Campagne D'Egypte / Napoleon: The Egyptian Campaign (Фабрис Урлье / Fabrice Hourlier) [2016, Документальный, постановочный, война, HDTVRip 720p] Galfimbul 14056975821.31 GB 0 0 1492655558

05:32

20-Апр-17

Еще никто не оставлял запись к записи скачать торрент Наполеон: Египетская кампания . Будь первым!

!Обратная связь