Скачать через торрент Ирина Фильм бесплатно в хорошем качестве torrent

Скачивайте на UnionPeer.org фильмы через торрент без регистрации. Новинки кино в хорошем качестве через торрент. На UnionPeer.org можно скачать через торрент фильмы 2014 и 2015 годов. Самые новые фильмы.

Скачать торрент Ирина бесплатно через .torrent фильм мультфильм сериал

Статистика раздачи
Размер:  2.58 GB   |    Зарегистрирован:  4 месяца 20 дней   |    .torrent скачан:  37 раз   |   
Раздают:  1  
   
загрузка...
 
Автор Сообщение

Galfimbul

avatar Galfimbul


Ирина

Год выпуска: 2018
Страна: Россия
Студия: ВГТРК
Жанр: Документальный
Продолжительность: 00:52:04
Перевод: Не требуется
Русские субтитры: нет

Описание:

К юбилею Ирины Александровны Винер-Усмановой, главного тренера сборной России по художественной гимнастике и президента Всероссийской федерации художественной гимнастики. 20 лет команда России — на высшей ступени пьедестала. Ее воспитанницы — многократные чемпионки Европы, мира. Олимпийские чемпионки пяти олимпиад подряд. Таких результатов не добивался ни один тренер! Королева спорта — так называют Ирину Александровну ученицы. Великий тренер, властная и сильная женщина, она научила преодолевать себя не только своих воспитанниц — Алину Кабаеву, Яну Кудрявцеву, Арину и Дину Авериных, Александру Солдатову, Маргариту Мамун. Ирина Александровна преодолевает и себя, каждый день, по 8-12 часов в тренировочном зале, на соревнованиях, в поездках. Представить свою жизнь без учениц и вне тренировочного зала тренер Винер не может. Она любит повторять, что талант надо отработать, и считает, что художественная гимнастика — это не спорт, а искусство.

Сэмпл: http://multi-up.com/1205044

Тип релиза: HDTV 1080i
Контейнер: TS

Видео: AVC, 1920x1080, (16:9), 25 fps, 6 541 kb/s
Аудио: Russian, MP2, 48 kHz, 2 ch; 192 kbps
GeneralID : 1 (0x1)Complete name : C:\Ирина_HDTV 1080i_RUS.tsFormat : MPEG-TSFile size : 2.58 GiBDuration : 52 min 4 sOverall bit rate mode : VariableOverall bit rate : 7 085 kb/s

VideoID : 206 (0xCE)Menu ID : 20106 (0x4E8A)Format : AVCFormat/Info : Advanced Video CodecFormat profile : [email protected] settings : CABAC / 4 Ref FramesFormat settings, CABAC : YesFormat settings, RefFrames : 4 framesCodec ID : 27Duration : 52 min 4 sBit rate : 6 541 kb/sWidth : 1 920 pixelsHeight : 1 080 pixelsDisplay aspect ratio : 16:9Frame rate : 25.000 FPSStandard : ComponentColor space : YUVChroma subsampling : 4:2:0Bit depth : 8 bitsScan type : InterlacedScan type, store method : Separated fieldsScan order : Top Field FirstBits/(Pixel*Frame) : 0.126Stream size : 2.38 GiB (92%)Color range : LimitedColor primaries : BT.709Transfer characteristics : BT.709Matrix coefficients : BT.709

AudioID : 306 (0x132)Menu ID : 20106 (0x4E8A)Format : MPEG AudioFormat version : Version 1Format profile : Layer 2Codec ID : 3Duration : 52 min 4 sBit rate mode : ConstantBit rate : 192 kb/sChannel(s) : 2 channelsSampling rate : 48.0 kHzFrame rate : 41.667 FPS (1152 SPF)Compression mode : LossyStream size : 71.5 MiB (3%)Language : Russian


Трекер:  [ 30-Июл-2018 18:06 ]

  

Скачать .torrent

Размер .torrent файла 13 KB


Размер: 2.58 GB
Хэш (hash) релиза: 909fea82a0dbb4eec911067eb9e34bed53c33a63
Подписка на обновления:

Торренты, похожие на Ирина скачать торрент

Форум Название Автор Размер S L Добавлен
Развлекательные телепередачи и шоу ·· Хорошие шутки.Сезон 3. Выпуск 12(Дмитрий Губерниев, Роман Скворцов, Михаил Сёмин - Полина Гагарина, Ирина Салтыкова, Ирина Дубцова, Айя) [2008, Юмористическая передача, DVB] Galfimbul 38615633963.6 GB 0 0 1497066358

06:45

10-Июн-17

Зарубежные сериалы ·· Ирина Катеринска/Ирина Катеринска - Малка книжка за Коледа./Маленькая книга о Рождестве. [2012, PDF, BGR] Galfimbul 97627399 MB 0 0 1481106733

13:32

7-Дек-16

Мультфильмы до 2016 ·· Птахи (Ирина Смирнова) [2013, Украина, мультфильм, WEBRip] Galfimbul 10394858699 MB 0 0 1529715682

04:01

23-Июн-18

Российские сериалы ·%· Нежная зима / Миксер и Елочка / Сезон: 1 / Серии: 1-4 из 4 (Ирина Волох, Анна Пармас) [2005, мелодрама, SATRip] Galfimbul 26391162882.46 GB 0 0 1528989137

18:12

14-Июн-18

Зарубежные фильмы до 2016 ·· Моя тетя пришла / Halam Geldi (Эрхан Козан / Erhan Kozan) [2013, Турция, драма, DVD9 (Custom)] VO (Ирина Котова) + Sub Eng + Original Tur Galfimbul 83787571207.8 GB 0 0 1527442244

20:30

27-Май-18

Документальные фильмы и телепередачи ·· Диктор Советского Союза (Ирина Фирсова) [2018, Россия, Документальный, HDTV 1080i] Galfimbul 19325807801.8 GB 0 0 1527255385

16:36

25-Май-18

Спорт ·· WTA Madrid Open 18/ 2-й круг/ Ирина Бегу (Румыния) — Мария Шарапова (Россия)/ Irina Begu — Maria Sharapova/ TVP Sport HD [07.05.18/Теннис/IPTVRip/720p/50fps/MKV/H.264/PL] Galfimbul 31246977072.91 GB 0 0 1525700540

16:42

7-Май-18

Развлекательные телепередачи и шоу ·· Ледниковый период. Сезон 4. Выпуски 1-16, Юбилейный вечер Ирины Родниной, Гала - Концерт[2009, Фигурное катание, SATRip, MPEG2] Galfimbul 7063275520065.78 GB 0 0 1525441330

16:42

4-Май-18

Зарубежные сериалы ·· Айла / Ayla / Серии: 1-2 (Джан Улкай / Can Ulkay) [2017, Турция, Фильмы, Военные, Драмы, История, WEB-DLRip] (DVO Ирина Котова Ильдор Ахмеджанов) Galfimbul 16029663221.49 GB 0 0 1524561501

12:18

24-Апр-18

Зарубежные фильмы до 2016 ·· В понедельник утром / Понеделник сутрин / Monday Morning (Ирина Акташева, Христо Писков / Irina Aktasheva, Hristo Piskov) [1965, Болгария, драма, DVD5 (Custom)] + Sub Rus Galfimbul 46153052164.3 GB 0 0 1523547064

18:31

12-Апр-18

Спорт ·· WTA Premier Charleston 2018/ 3-й круг/ Ирина Бегу (Румыния, 13) — Дарья Касаткина (Россия, 3)/ Irina-Camelia Begu - Darya Kasatkina/ DIGI Sport HD [05.04.18/Теннис/IPTVRip/720p/50fps/MKV/H.264/HU] Galfimbul 23826481262.22 GB 0 0 1522951937

21:12

5-Апр-18

Зарубежные сериалы ·· Личность / Sahsiyet / Серии: 1 из ? (Онур Сайлак / Onur Saylak) [2018, Турция, Криминал, WEB-DLRip] VO Ирина Котова Galfimbul 998641494952 MB 0 0 1521404298

23:18

18-Мар-18

Зарубежные фильмы 2016-2018 (Новинки зарубежного кино) ·· Время счастья / Mutluluk Zamani (Сенол Сонмез / Senol Sоnmez ) [2017, Турция, мелодрама, комедия, WEB-DLRip] VO (Ирина Котова) Galfimbul 14298665321.33 GB 0 0 1521379823

16:30

18-Мар-18

Зарубежные сериалы ·· Сон / Ruya / Серии: 1 из 10 (Джемаль Шан) [2017, Турция, Мелодрама, HDTVRip] VO Ирина Котова Galfimbul 17046723161.59 GB 0 0 1520873332

19:48

12-Мар-18

Мультфильмы до 2016 ·· Гусятница у колодца (Ирина Тарасова) [2013, Беларусь, мультфильм, сказка, WEBRip] Galfimbul 236039128225 MB 0 0 1520563004

05:36

9-Мар-18

Документальные фильмы и телепередачи ·· Тайны века. Две войны Ивана Кожедуба (Ирина Морозова) [2010, Документальный, авиация, биография, война, история, SATRip] Galfimbul 778440704742 MB 0 0 1519920863

19:14

1-Мар-18

Зарубежные сериалы ·· Бальное платье (Маргарита Касымова, Ирина Волох) [2003, Беларусь, драма, мелодрама, DVD5] Sub ukr Galfimbul 43421061124.04 GB 0 0 1519892877

11:27

1-Мар-18

Документальные фильмы и телепередачи ·· Сталинградская битва / Серии: 1-2 из 2 (Ирина Прокудина) [2013, Документально-постановочный, история, военный, реконструкция, HDTVRip] Galfimbul 14690037761.37 GB 0 0 1518021893

19:44

7-Фев-18

3D Мультфильмы ·· Корабль сокровищ в 3Д / Janosch: Komm, wir finden einen Schatz 3D (Ирина Пробост / Irina Probost) [2012, Мультфильм, детский, семейный, приключения, полнометражный, BDremux, 1080p] BD3D Galfimbul 2221021593620.68 GB 0 0 1517739443

13:17

4-Фев-18

Еще никто не оставлял запись к записи скачать торрент Ирина . Будь первым!

!Обратная связь