Скачать через торрент Поле Разума Mind Field Фильм бесплатно в хорошем качестве torrent

Скачивайте на UnionPeer.org фильмы через торрент без регистрации. Новинки кино в хорошем качестве через торрент. На UnionPeer.org можно скачать через торрент фильмы 2014 и 2015 годов. Самые новые фильмы.

Скачать торрент Поле Разума Mind Field бесплатно через .torrent фильм мультфильм сериал

Статистика раздачи
Размер:  9.37 GB   |    Зарегистрирован:  2 месяца 18 дней   |    .torrent скачан:  36 раз   |   
Раздают:  1  
   
загрузка...
 
Автор Сообщение

Galfimbul

avatar Galfimbul


Поле Разума / Mind Field
Год выпуска: 2017-2018
Страна: США
Жанр: Образование, Научно-популярное Шоу
Продолжительность: 16x ~25 мин.
Перевод: Одноголосый закадровый
Доп. инфо о переводе: { Voice Power }
Русские субтитры: нет

Режиссер: Майкл Стивенс

Описание: Mind Field - американский веб-сериал, созданный исключительно для YouTube Red Майклом Стивенсом, создателем YouTube канала «Vsauce». Премьера первых двух эпизодов состоялась на главном канале «Vsauce» 18 января 2017 года, а затем выходили еженедельные эпизоды до 1 марта 2017 года, второй сезон начал транслироваться с 6 декабря 2017 года.
Формат сериала очень напоминает формат канала «Vsauce», представляя эпизоды в документальном стиле, которые фокусируются на интересных аспектах человеческого поведения, мозга и сознания. Каждый эпизод содержит эксперимент, в котором участвуют либо добровольцы, либо сам Майкл. Например, в первом эпизоде Майкл запирает себя в пустой комнате в течение трёх дней, чтобы исследовать влияние одиночного заключения на мозг.

I Сезон
01 Isolation / Изоляция
02 Conformity / Конформность
03 Destruction / Разрушение
04 Artificial Intelligence / Искусственный Интеллект
05 Freedom of Choice / Свобода Выбора
06 Touch / Осязание
07 In Your Face / Мимика
08 Do You Know Yourself? / Знаешь ли Ты Себя?

II Сезон
01 The Greater Good / Общее Благо
02 The Psychedelic Experience / Психоделический Опыт
03 Interrogation / Допрос
04 Your Brain on Tech / Мозг и Технологии
05 How to Make a Hero / Как Создать Героя
06 The Power of Suggestion / Сила Внушения
07 Divergent Minds / Дивергентные Разумы
08 The Electric Brain / Электрический Мозг

Доп. информация: Данная раздача представляет собой WEB-DLRip 720р, файлы с коммерческого канала YouTube Red, перекодированые с оригинального 4К релиза
------------------------ MediaInfo Source File ------------------------

C:\Users\Rustin\Desktop\Mind Field\Muxed video without audio and subt\S02E01 The Greater Good.mkv

General
Complete name : C:\Users\Rustin\Desktop\Mind Field\Muxed video without audio and subt\S02E01 The Greater Good.mkv
Format : Matroska
Format version : Version 4 / Version 2
File size : 3.64 GiB
Duration : 34 min 37 s
Overall bit rate : 15.0 Mb/s
Encoded date : UTC 2018-07-22 16:12:10
Writing application : mkvmerge v25.0.0 ('Prog Noir') 64-bit
Writing library : libebml v1.3.6 + libmatroska v1.4.9

Video
ID : 1
Format : AVC
Format/Info : Advanced Video Codec
Format profile : [email protected]
Format settings : 2 Ref Frames
Format, CABAC : No
Format, RefFrames : 2 frames
Codec ID : V_MPEG4/ISO/AVC
Duration : 34 min 37 s
Bit rate : 15.0 Mb/s
Width : 3 840 pixels
Height : 2 160 pixels
Display aspect ratio : 16:9
Frame rate mode : Constant
Frame rate : 23.976 (24000/1001) FPS
Color space : YUV
Chroma subsampling : 4:2:0
Bit depth : 8 bits
Scan type : Progressive
Bits/(Pixel*Frame) : 0.076
Stream size : 3.64 GiB (100%)
Title : The Greater Good
Default : Yes
Forced : No
Color range : Limited
Color primaries : BT.2020
Transfer characteristics : BT.709
Matrix coefficients : BT.2020 non-constant

----------------------- Indexing using ffmsindex -----------------------

D:\StaxRip\Apps\Plugins\both\ffms2\ffmsindex.exe "C:\Users\Rustin\Desktop\Mind Field\Muxed video without audio and subt\S02E01 The Greater Good.mkv" "C:\Users\Rustin\Desktop\Mind Field\Muxed video without audio and subt\S02E01 The Greater Good_temp\S02E01 The Greater Good.ffindex"

Writing index... done.

Start: 20:07:33
End: 20:08:18
Duration: 00:00:44

--------------------------- AviSynth Script ---------------------------

LoadPlugin("D:\StaxRip\Apps\Plugins\both\ffms2\ffms2.dll")
FFVideoSource("C:\Users\Rustin\Desktop\Mind Field\Muxed video without audio and subt\S02E01 The Greater Good.mkv", colorspace = "YV12", \
cachefile = "C:\Users\Rustin\Desktop\Mind Field\Muxed video without audio and subt\S02E01 The Greater Good_temp\S02E01 The Greater Good.ffindex")
BicubicResize(1280, 720, 0, 0.5)

-------------------------- Script Properties --------------------------

Source Frame Count : 49818
Source Frame Rate : 23.976024
Source Duration : 00:34:37.8260000
Target Frame Count : 49818
Target Frame Rate : 23.976024
Target Duration : 00:34:37.8260000

-------------- Video encoding using x264 0.150.2851 8-Bit --------------

D:\StaxRip\Apps\x264\x264.exe --crf 18 --preset veryslow --level 4.2 --colorprim bt2020 --colormatrix bt2020nc --output "C:\Users\Rustin\Desktop\Mind Field\Muxed video without audio and subt\S02E01 The Greater Good_temp\S02E01 The Greater Good_out.h264" "C:\Users\Rustin\Desktop\Mind Field\Muxed video without audio and subt\S02E01 The Greater Good_temp\S02E01 The Greater Good.avs"

avs [info]: 1280x720p 0:0 @ 24000/1001 fps (cfr)
x264 [info]: using cpu capabilities: MMX2 SSE2Fast LZCNT
x264 [info]: profile High, level 4.2
x264 [info]: frame I:724 Avg QP:14.74 size:120863
x264 [info]: frame P:11743 Avg QP:18.01 size: 29230
x264 [info]: frame B:37351 Avg QP:20.35 size: 7235
x264 [info]: consecutive B-frames: 3.0% 2.1% 7.3% 40.6% 19.3% 24.7% 1.9% 0.6% 0.4%
x264 [info]: mb I I16..4: 6.1% 70.1% 23.7%
x264 [info]: mb P I16..4: 2.7% 10.1% 1.5% P16..4: 41.7% 18.0% 13.6% 0.7% 0.3% skip:11.5%
x264 [info]: mb B I16..4: 0.3% 0.9% 0.1% B16..8: 34.1% 8.7% 1.9% direct: 5.5% skip:48.5% L0:46.0% L1:44.7% BI: 9.3%
x264 [info]: 8x8 transform intra:69.6% inter:62.9%
x264 [info]: direct mvs spatial:100.0% temporal:0.0%
x264 [info]: coded y,uvDC,uvAC intra: 63.7% 73.3% 42.0% inter: 13.8% 18.4% 3.5%
x264 [info]: i16 v,h,dc,p: 35% 21% 11% 33%
x264 [info]: i8 v,h,dc,ddl,ddr,vr,hd,vl,hu: 14% 13% 16% 7% 9% 10% 10% 9% 12%
x264 [info]: i4 v,h,dc,ddl,ddr,vr,hd,vl,hu: 16% 14% 8% 8% 12% 11% 11% 9% 11%
x264 [info]: i8c dc,h,v,p: 45% 26% 18% 11%
x264 [info]: Weighted P-Frames: Y:4.4% UV:2.5%
x264 [info]: ref P L0: 50.3% 7.9% 17.1% 6.6% 5.6% 4.1% 3.8% 2.2% 2.3% 0.1% 0.0%
x264 [info]: ref B L0: 72.8% 11.3% 6.2% 3.3% 2.5% 2.1% 1.4% 0.5%
x264 [info]: ref B L1: 94.6% 5.4%
x264 [info]: kb/s:2698.94
encoded 49818 frames, 2.73 fps, 2698.94 kb/s

Start: 20:19:11
End: 1:23:15
Duration: 05:04:04

General
Complete name : C:\Users\Rustin\Desktop\Mind Field\Muxed video without audio and subt\S02E01 The Greater Good_temp\S02E01 The Greater Good_out.h264
Format : AVC
Format/Info : Advanced Video Codec
File size : 669 MiB
Writing library : x264 core 152 r2851 ba24899

Video
Format : AVC
Format/Info : Advanced Video Codec
Format profile : [email protected]
Format settings : CABAC / 9 Ref Frames
Format, CABAC : Yes
Format, RefFrames : 9 frames
Width : 1 280 pixels
Height : 720 pixels
Display aspect ratio : 16:9
Frame rate : 23.976 (24000/1001) FPS
Color space : YUV
Chroma subsampling : 4:2:0
Bit depth : 8 bits
Scan type : Progressive
Writing library : x264 core 152 r2851 ba24899
Color range : Limited
Color primaries : BT.2020
Matrix coefficients : BT.2020 non-constant
Сэмпл

Тип релиза: WEB-DLRip 720p
Контейнер: MKV

Видео: AVC, 1280х720 (16:9), 23.976 fps, ~2739 kbps
Аудио: Русский, ААС, 2 ch, VBR 256 kbps, 48 kHz
Аудио 2: Английский, ААС, 2 ch, VBR 256 kbps, 48 kHz
Формат субтитров: Английские / SubRip
GeneralUnique ID : 156343285156707556265020875325005117891 (0x759E9F17435E09281C6D9307688439C3)Complete name : D:\Скачка\Mind Field\Rutrack\Mind.Field.S01-02.2017-2018.RED.WEB-DLRip.720p-VoicePower\S02\S02E01 The Greater Good.mkvFormat : MatroskaFormat version : Version 4 / Version 2File size : 746 MiBDuration : 34 min 37 sOverall bit rate mode : VariableOverall bit rate : 3 013 kb/sEncoded date : UTC 2018-07-26 17:02:18Writing application : mkvmerge v25.0.0 ('Prog Noir') 64-bitWriting library : libebml v1.3.6 + libmatroska v1.4.9

VideoID : 1Format : AVCFormat/Info : Advanced Video CodecFormat profile : [email protected] settings : CABAC / 9 Ref FramesFormat settings, CABAC : YesFormat settings, ReFrames : 9 framesCodec ID : V_MPEG4/ISO/AVCDuration : 34 min 37 sBit rate mode : VariableBit rate : 2 702 kb/sMaximum bit rate : 40.0 Mb/sWidth : 1 280 pixelsHeight : 720 pixelsDisplay aspect ratio : 16:9Frame rate mode : ConstantFrame rate : 23.976 (24000/1001) FPSColor space : YUVChroma subsampling : 4:2:0Bit depth : 8 bitsScan type : ProgressiveBits/(Pixel*Frame) : 0.122Stream size : 669 MiB (90%)Default : YesForced : NoColor range : LimitedColor primaries : BT.2020Matrix coefficients : BT.2020 non-constant

Audio #1ID : 2Format : AACFormat/Info : Advanced Audio CodecFormat profile : LCCodec ID : A_AAC-2Duration : 34 min 37 sBit rate : 155 kb/sChannel(s) : 2 channelsChannel positions : Front: L RSampling rate : 48.0 kHzFrame rate : 46.875 FPS (1024 SPF)Compression mode : LossyDelay relative to video : 20 msStream size : 38.4 MiB (5%)Language : RussianDefault : YesForced : No

Audio #2ID : 3Format : AACFormat/Info : Advanced Audio CodecFormat profile : LCCodec ID : A_AAC-2Duration : 34 min 37 sBit rate : 153 kb/sChannel(s) : 2 channelsChannel positions : Front: L RSampling rate : 48.0 kHzFrame rate : 46.875 FPS (1024 SPF)Compression mode : LossyDelay relative to video : 20 msStream size : 37.9 MiB (5%)Language : EnglishDefault : NoForced : No

TextID : 4Format : UTF-8Codec ID : S_TEXT/UTF8Codec ID/Info : UTF-8 Plain TextDuration : 33 min 52 sBit rate : 120 b/sCount of elements : 773Stream size : 30.0 KiB (0%)Title : The Greater GoodLanguage : EnglishDefault : YesForced : No


Трекер:  [ 30-Июл-2018 06:06 ]

  

Скачать .torrent

Размер .torrent файла 49 KB


Размер: 9.37 GB
Хэш (hash) релиза: 2df23036d4812ddf34f5ac9a07cdce5c0c702960
Подписка на обновления:

Еще никто не оставлял запись к записи скачать торрент Поле Разума Mind Field . Будь первым!

!Обратная связь