Скачать через торрент Мощь вулканов Фильм бесплатно в хорошем качестве torrent

Скачивайте на UnionPeer.org фильмы через торрент без регистрации. Новинки кино в хорошем качестве через торрент. На UnionPeer.org можно скачать через торрент фильмы 2014 и 2015 годов. Самые новые фильмы.

Скачать торрент Мощь вулканов бесплатно через .torrent фильм мультфильм сериал

Статистика раздачи
Размер:  5.95 GB   |    Зарегистрирован:  4 месяца 22 дня   |    .torrent скачан:  67 раз   |   
Раздают:  1  
   
загрузка...
 
Автор Сообщение

Galfimbul

avatar Galfimbul


Мощь вулканов (2 серии из 2) / The Power of Volcanos

Год выпуска: 2016
Страна: Германия
Студия: Groupe 5
Жанр: Документальный, история, исследования
Продолжительность: 2x ~00:52:00
Перевод: Студийный (одноголосый закадровый)
Доп. инфо о переводе: SDI Media / Сергей Косталев
Русские субтитры: нет

Режиссер: Стефан Коэстер / Stefan Koester

Описание:
Может ли местное стихийное бедствие повлиять глобально на погоду, влияя тем самым на ход истории? Используя потрясающую визуализацию «Мощь вулканов» дает понять: вулканы могут спать очень долго. Но они могут проснуться быстрее, чем вы думаете, и в худшем случае это повлечет за собой фатальную цепь событий. В VI веке нашей эры большая часть мира была затронута таинственными погодными явления, вызывавшими падение температуры, неурожаи и голод. Все это может быть результатом большого извержения вулканов в тропиках. К чему приводит извержение вулкана? Реконструкция катастроф с древних времен дает нам новое представление об исторических событиях и тенденциях.

Сэмпл: http://multi-up.com/1204856

Тип релиза: HDTV 720p
Контейнер: TS

Видео: AVC, 1280x720 (16:9), 50 fps, 7 587 kb/s, 0.165 bit/pixel
Аудио: Russian, MP2, 48 kHz, 2 ch; 128 kbps
Аудио 2: English, MP2, 48 kHz, 2 ch; 128 kbps
GeneralID : 1 (0x1)Complete name : F:\Мощь вулканов_HDTV 720p_RUS_ENG-dds\Мощь вулканов 1 эп..tsFormat : MPEG-TSFile size : 3.01 GiBDuration : 52 min 15 sOverall bit rate mode : VariableOverall bit rate : 8 254 kb/s

VideoID : 305 (0x131)Menu ID : 17105 (0x42D1)Format : AVCFormat/Info : Advanced Video CodecFormat profile : [email protected] settings : CABAC / 5 Ref FramesFormat settings, CABAC : YesFormat settings, RefFrames : 5 framesCodec ID : 27Duration : 52 min 15 sBit rate : 7 587 kb/sWidth : 1 280 pixelsHeight : 720 pixelsDisplay aspect ratio : 16:9Frame rate : 50.000 FPSStandard : ComponentColor space : YUVChroma subsampling : 4:2:0Bit depth : 8 bitsScan type : ProgressiveBits/(Pixel*Frame) : 0.165Stream size : 2.77 GiB (92%)Color range : LimitedColor primaries : BT.709Transfer characteristics : BT.709Matrix coefficients : BT.709

Audio #1ID : 405 (0x195)Menu ID : 17105 (0x42D1)Format : MPEG AudioFormat version : Version 1Format profile : Layer 2Codec ID : 3Duration : 52 min 15 sBit rate mode : ConstantBit rate : 128 kb/sChannel(s) : 2 channelsSampling rate : 48.0 kHzFrame rate : 41.667 FPS (1152 SPF)Compression mode : LossyDelay relative to video : -40 msStream size : 47.8 MiB (2%)Language : Russian

Audio #2ID : 425 (0x1A9)Menu ID : 17105 (0x42D1)Format : MPEG AudioFormat version : Version 1Format profile : Layer 2Codec ID : 3Duration : 52 min 15 sBit rate mode : ConstantBit rate : 128 kb/sChannel(s) : 2 channelsSampling rate : 48.0 kHzFrame rate : 41.667 FPS (1152 SPF)Compression mode : LossyDelay relative to video : -40 msStream size : 47.8 MiB (2%)Language : English


Трекер:  [ 27-Июл-2018 23:36 ]

  

Скачать .torrent

Размер .torrent файла 15 KB


Размер: 5.95 GB
Хэш (hash) релиза: 988c13672f8f0c3586912e72e92c5c047715598f
Подписка на обновления:

Торренты, похожие на Мощь вулканов скачать торрент

Форум Название Автор Размер S L Добавлен
Документальные фильмы и телепередачи ·· Мощь вулканов (1-2 серии) / The Power of Volcanos (Стефан Коэстер) [2016, Документальный, история, исследования, HDTVRip 720p] Galfimbul 35146885103.27 GB 0 0 1514621577

11:12

30-Дек-17

Еще никто не оставлял запись к записи скачать торрент Мощь вулканов . Будь первым!

!Обратная связь