Скачать через торрент Пятьдесят самых зрелищных схваток с акулами Shark Week 50 Best Bites Фильм бесплатно в хорошем качестве torrent

Скачивайте на UnionPeer.org фильмы через торрент без регистрации. Новинки кино в хорошем качестве через торрент. На UnionPeer.org можно скачать через торрент фильмы 2014 и 2015 годов. Самые новые фильмы.

Скачать торрент Пятьдесят самых зрелищных схваток с акулами Shark Week 50 Best Bites бесплатно через .torrent фильм мультфильм сериал

Статистика раздачи
Размер:  4.95 GB   |    Зарегистрирован:  2 месяца 21 день   |    .torrent скачан:  47 раз   |   
Раздают:  1  
   
загрузка...
 
Автор Сообщение

Galfimbul

avatar Galfimbul


Пятьдесят самых зрелищных схваток с акулами / Shark Week 50 Best Bites

Год выпуска: 2018
Страна: США
Студия: All3Media America and Main Event Media
Жанр: Документальный, познавательный, природа, путешествия, экстрим
Продолжительность: 01:26:05
Перевод: Профессиональный (многоголосый закадровый)
Доп. инфо о переводе: Серей Казаков / Мобильное Телевидение
Режиссер: Джимми Фокс / Jimmy Fox

Описание: Миллионы людей каждый год устремляются в отпуск на побережье, но некоторым несчастным он может стоить жизни.
Спецвыпуск с участием знаменитостей, посвященный 30-летию Недели акул. Вас ждут потрясающие подводные съемки, жуткие кадры нападений подводных хищников и столкновений с ними.

Для ознакомления с качеством посмотрите Сэмпл

Тип релиза: HDTVRip 1080p
Контейнер: MKV

Видео: MPEG4 Video (H264), 1920x1080, 25.000 fps, 8 bits, 7 298 Kbps
Аудио: Russian, AC-3, 48KHz, 5.1 (6 channels), 384 kbps
Аудио 2: English, AC-3, 48KHz, 5.1 (6 channels), 384 kbps
GeneralUnique ID : 190331772792894013570912573362561351800 (0x8F3090E93E59C1D52439582F63BC0078)Complete name : D:\Мои торрент - раздачи\Пятьдесят самых зрелищных схваток с акулами - Shark week 50 best bites.mkvFormat : MatroskaFormat version : Version 4 / Version 2File size : 4.95 GiBDuration : 1h 26mnOverall bit rate : 8 230 KbpsEncoded date : UTC 2018-07-26 13:30:35Writing application : mkvmerge v21.0.0 ('Tardigrades Will Inherit The Earth') 64-bitWriting library : libebml v1.3.5 + libmatroska v1.4.8DURATION : 01:26:04.832000000NUMBER_OF_FRAMES : 161401NUMBER_OF_BYTES : 247911936_STATISTICS_WRITING_APP : mkvmerge v21.0.0 ('Tardigrades Will Inherit The Earth') 64-bit_STATISTICS_WRITING_DATE_UTC : 2018-07-26 13:30:35_STATISTICS_TAGS : BPS DURATION NUMBER_OF_FRAMES NUMBER_OF_BYTES

VideoID : 1Format : AVCFormat/Info : Advanced Video CodecFormat profile : [email protected] settings, CABAC : YesFormat settings, ReFrames : 4 framesCodec ID : V_MPEG4/ISO/AVCDuration : 1h 26mnBit rate : 7 298 KbpsWidth : 1 920 pixelsHeight : 1 080 pixelsDisplay aspect ratio : 16:9Frame rate mode : ConstantFrame rate : 25.000 fpsStandard : ComponentColor space : YUVChroma subsampling : 4:2:0Bit depth : 8 bitsScan type : InterlacedScan order : Top Field FirstBits/(Pixel*Frame) : 0.141Stream size : 4.39 GiB (89%)Default : YesForced : NoColor primaries : BT.709Transfer characteristics : BT.709Matrix coefficients : BT.709

Audio #1ID : 2Format : AC-3Format/Info : Audio Coding 3Mode extension : CM (complete main)Format settings, Endianness : BigCodec ID : A_AC3Duration : 1h 26mnBit rate mode : ConstantBit rate : 384 KbpsChannel(s) : 6 channelsChannel positions : Front: L C R, Side: L R, LFESampling rate : 48.0 KHzBit depth : 16 bitsCompression mode : LossyStream size : 236 MiB (5%)Title : RussianLanguage : RussianDefault : YesForced : No

Audio #2ID : 3Format : AC-3Format/Info : Audio Coding 3Mode extension : CM (complete main)Format settings, Endianness : BigCodec ID : A_AC3Duration : 1h 26mnBit rate mode : ConstantBit rate : 384 KbpsChannel(s) : 6 channelsChannel positions : Front: L C R, Side: L R, LFESampling rate : 48.0 KHzBit depth : 16 bitsCompression mode : LossyStream size : 236 MiB (5%)Title : OriginalLanguage : EnglishDefault : NoForced : No


Трекер:  [ 27-Июл-2018 15:06 ]

  

Скачать .torrent

Размер .torrent файла 25 KB


Размер: 4.95 GB
Хэш (hash) релиза: 9050725f2bd49790fd16beef58e6ff31d255d374
Подписка на обновления:

Еще никто не оставлял запись к записи скачать торрент Пятьдесят самых зрелищных схваток с акулами Shark Week 50 Best Bites . Будь первым!

!Обратная связь