Скачать через торрент Крокодил-людоед Man-Eating Super Croc Фильм бесплатно в хорошем качестве torrent

Скачивайте на UnionPeer.org фильмы через торрент без регистрации. Новинки кино в хорошем качестве через торрент. На UnionPeer.org можно скачать через торрент фильмы 2014 и 2015 годов. Самые новые фильмы.

Скачать торрент Крокодил-людоед Man-Eating Super Croc бесплатно через .torrent фильм мультфильм сериал

Статистика раздачи
Размер:  3.24 GB   |    Зарегистрирован:  4 месяца 23 дня   |    .torrent скачан:  43 раза   |   
Раздают:  1  
   
загрузка...
 
Автор Сообщение

Galfimbul

avatar Galfimbul


Крокодил-людоед / Man-Eating Super Croc

Год выпуска: 2012
Страна: USA
Студия: Hoff Prod.
Жанр: Документальный
Продолжительность: 00:43:40
Перевод: Одноголосый закадровый
Русские субтитры: нет

Режиссер: Лоуренс Кумбо / Lawrence Cumbo

Описание:

Огромный самец крокодил терроризирует небольшой город, расположенный на Филиппинах. Печально то, что этот речной монстр не являлся плодом воображения сценариста фильмов ужасов, а был реален и чрезвычайно опасен. После того как беспощадный пресмыкающийся растерзал и съел молодую девушку, было решено объявить ему войну. В её авангарде стали двое опытных охотников за крокодилами. Проблема в том, что силы двух людей уступают силе монстра.

[b]Сэмпл
: http://multi-up.com/1204794

Тип релиза: HDTV 1080i
Контейнер: TS

Видео: AVC, 1920x1080, (16:9), 25 fps, 9 330 kb/s
Аудио: Russian, AC3, 48 kHz, 6 ch; 386 kbps
Аудио 2: English, AC3, 48 kHz, 6 ch; 386 kbps
GeneralID : 1 (0x1)Complete name : F:\Крокодил-людоед_HDTV 1080i_RUS_ENG-dds.tsFormat : MPEG-TSFile size : 3.24 GiBDuration : 43 min 40 sOverall bit rate mode : VariableOverall bit rate : 10.6 Mb/s

VideoID : 202 (0xCA)Menu ID : 2202 (0x89A)Format : AVCFormat/Info : Advanced Video CodecFormat profile : [email protected] settings : CABAC / 4 Ref FramesFormat settings, CABAC : YesFormat settings, RefFrames : 4 framesCodec ID : 27Duration : 43 min 40 sBit rate : 9 330 kb/sWidth : 1 920 pixelsHeight : 1 080 pixelsDisplay aspect ratio : 16:9Frame rate : 25.000 FPSStandard : ComponentColor space : YUVChroma subsampling : 4:2:0Bit depth : 8 bitsScan type : InterlacedScan type, store method : Separated fieldsScan order : Top Field FirstBits/(Pixel*Frame) : 0.180Stream size : 2.85 GiB (88%)Color range : LimitedColor primaries : BT.709Transfer characteristics : BT.709Matrix coefficients : BT.709

Audio #1ID : 302 (0x12E)Menu ID : 2202 (0x89A)Format : AC-3Format/Info : Audio Coding 3Codec ID : 6Duration : 43 min 40 sBit rate mode : ConstantBit rate : 384 kb/sChannel(s) : 6 channelsChannel positions : Front: L C R, Side: L R, LFESampling rate : 48.0 kHzFrame rate : 31.250 FPS (1536 SPF)Bit depth : 16 bitsCompression mode : LossyDelay relative to video : -80 msStream size : 120 MiB (4%)Language : RussianService kind : Complete Main

Audio #2ID : 402 (0x192)Menu ID : 2202 (0x89A)Format : AC-3Format/Info : Audio Coding 3Codec ID : 6Duration : 43 min 40 sBit rate mode : ConstantBit rate : 384 kb/sChannel(s) : 6 channelsChannel positions : Front: L C R, Side: L R, LFESampling rate : 48.0 kHzFrame rate : 31.250 FPS (1536 SPF)Bit depth : 16 bitsCompression mode : LossyDelay relative to video : -80 msStream size : 120 MiB (4%)Language : EnglishService kind : Complete Main


Трекер:  [ 27-Июл-2018 13:36 ]

  

Скачать .torrent

Размер .torrent файла 16 KB


Размер: 3.24 GB
Хэш (hash) релиза: d5aed882bfb9ee3d6ebc57e3a491df289c13b10c
Подписка на обновления:

Еще никто не оставлял запись к записи скачать торрент Крокодил-людоед Man-Eating Super Croc . Будь первым!

!Обратная связь