Скачать через торрент Подводные тайны Галлиполи Gallipoli`s: Deep Secrets Фильм бесплатно в хорошем качестве torrent

Скачивайте на UnionPeer.org фильмы через торрент без регистрации. Новинки кино в хорошем качестве через торрент. На UnionPeer.org можно скачать через торрент фильмы 2014 и 2015 годов. Самые новые фильмы.

Скачать торрент Подводные тайны Галлиполи Gallipoli`s: Deep Secrets бесплатно через .torrent фильм мультфильм сериал

Статистика раздачи
Размер:  2.88 GB   |    Зарегистрирован:  4 месяца 23 дня   |    .torrent скачан:  50 раз   |   
Раздают:  1  
   
загрузка...
 
Автор Сообщение

Galfimbul

avatar Galfimbul


Подводные тайны Галлиполи / Gallipoli`s: Deep Secrets

Год выпуска: 2010
Страна: Australia
Студия: Pty Ltd
Жанр: Документальный
Продолжительность: 00:46:54
Перевод: Студийный (одноголосый закадровый)
Доп. инфо о переводе: ARK TV / Александр Гаврилин
Режиссер: Малькольм Лудгейт / Malcolm Ludgate

Описание:

Документальное телешоу «Подводные тайны Галлиполи» посвящено одному из кровопролитных сражений Первой мировой войны. Археолог Роберт Баллард, открывший тайну гибели «Титаника», вместе с помощниками погружается на морское дно. Экспедиция должна обнаружить останки судов, погибших в ходе Галлиполийского сражения, и узнать больше о трагических днях 1915-1916 годов.
Сэмпл: http://multi-up.com/1204785

Тип релиза: HDTV 1080i
Контейнер: TS

Видео: AVC, 1920x1080, (16:9), 25 fps, 7 958 kb/s
Аудио: Russian, MP2, 48 kHz, 2 ch; 192 kbps
Аудио 2: English, MP2, 48 kHz, 2 ch; 192 kbps
GeneralID : 1 (0x1)Complete name : C:\Подводные тайны Галлиполи_HDTV 1080i_RUS_ENG-dds.tsFormat : MPEG-TSFile size : 2.88 GiBDuration : 46 min 54 sOverall bit rate mode : VariableOverall bit rate : 8 778 kb/s

VideoID : 302 (0x12E)Menu ID : 26002 (0x6592)Format : AVCFormat/Info : Advanced Video CodecFormat profile : [email protected] settings : CABAC / 4 Ref FramesFormat settings, CABAC : YesFormat settings, RefFrames : 4 framesCodec ID : 27Duration : 46 min 54 sBit rate : 7 956 kb/sWidth : 1 920 pixelsHeight : 1 080 pixelsDisplay aspect ratio : 16:9Frame rate : 25.000 FPSStandard : ComponentColor space : YUVChroma subsampling : 4:2:0Bit depth : 8 bitsScan type : InterlacedScan type, store method : Separated fieldsScan order : Top Field FirstBits/(Pixel*Frame) : 0.153Stream size : 2.61 GiB (91%)Color range : LimitedColor primaries : BT.709Transfer characteristics : BT.709Matrix coefficients : BT.709

Audio #1ID : 402 (0x192)Menu ID : 26002 (0x6592)Format : AC-3Format/Info : Audio Coding 3Codec ID : 6Duration : 46 min 54 sBit rate mode : ConstantBit rate : 192 kb/sChannel(s) : 2 channelsChannel positions : Front: L RSampling rate : 48.0 kHzFrame rate : 31.250 FPS (1536 SPF)Bit depth : 16 bitsCompression mode : LossyDelay relative to video : -80 msStream size : 64.4 MiB (2%)Language : RussianService kind : Complete Main

Audio #2ID : 422 (0x1A6)Menu ID : 26002 (0x6592)Format : AC-3Format/Info : Audio Coding 3Codec ID : 6Duration : 46 min 54 sBit rate mode : ConstantBit rate : 192 kb/sChannel(s) : 2 channelsChannel positions : Front: L RSampling rate : 48.0 kHzFrame rate : 31.250 FPS (1536 SPF)Bit depth : 16 bitsCompression mode : LossyDelay relative to video : -80 msStream size : 64.4 MiB (2%)Language : EnglishService kind : Complete Main


Трекер:  [ 27-Июл-2018 13:06 ]

  

Скачать .torrent

Размер .torrent файла 15 KB


Размер: 2.88 GB
Хэш (hash) релиза: 7507ccae616784877b5223a326a5ff14bec9d10b
Подписка на обновления:

Еще никто не оставлял запись к записи скачать торрент Подводные тайны Галлиполи Gallipoli`s: Deep Secrets . Будь первым!

!Обратная связь