Скачать через торрент Осушить океан: Бермудский треугольник Drain the Bermuda Triangle Фильм бесплатно в хорошем качестве torrent

Скачивайте на UnionPeer.org фильмы через торрент без регистрации. Новинки кино в хорошем качестве через торрент. На UnionPeer.org можно скачать через торрент фильмы 2014 и 2015 годов. Самые новые фильмы.

Скачать торрент Осушить океан: Бермудский треугольник Drain the Bermuda Triangle бесплатно через .torrent фильм мультфильм сериал

Статистика раздачи
Размер:  2.67 GB   |    Зарегистрирован:  4 месяца 23 дня   |    .torrent скачан:  44 раза   |   
Раздают:  1  
   
загрузка...
 
Автор Сообщение

Galfimbul

avatar Galfimbul


Осушить океан: Бермудский треугольник / Drain the Bermuda Triangle

Год выпуска: 2014
Страна: Канада
Студия: National Geographic
Жанр: Документальный, реконструкция
Продолжительность: 00:43:55
Перевод: Студийный (одноголосый закадровый)
Доп. инфо о переводе: Велес / Сергей Куприянов
Режиссер: Жобим Сэмпсон / Jobim Sampson

Описание:

Бермудский треугольник - это место уже давно привлекает к себе исследователей и искателей приключений. Существует множество разных версий о том, что там происходит, но никто еще не заглядывал так глубоко в его тайны. Пользуясь новейшими технологиями, исследователи "осушат" океан на экране компьютера, чтобы посмотреть поближе на загадки, которые лежат на дне.

Сэмпл: http://multi-up.com/1204782

Тип релиза: HDTV 1080i
Контейнер: TS

Видео: AVC, 1920x1080, (16:9), 25 fps, 7 894 kb/s
Аудио: Russian, MP2, 48 kHz, 2 ch; 192 kbps
Аудио 2: English, MP2, 48 kHz, 2 ch; 192 kbps
GeneralID : 1 (0x1)Complete name : F:\Осушить океан - Бермудский треугольник_HDTV 1080i_RUS_ENG-dds.tsFormat : MPEG-TSFile size : 2.67 GiBDuration : 43 min 55 sOverall bit rate mode : VariableOverall bit rate : 8 712 kb/s

VideoID : 302 (0x12E)Menu ID : 26002 (0x6592)Format : AVCFormat/Info : Advanced Video CodecFormat profile : [email protected] settings : CABAC / 4 Ref FramesFormat settings, CABAC : YesFormat settings, RefFrames : 4 framesCodec ID : 27Duration : 43 min 55 sBit rate : 7 894 kb/sWidth : 1 920 pixelsHeight : 1 080 pixelsDisplay aspect ratio : 16:9Frame rate : 25.000 FPSStandard : ComponentColor space : YUVChroma subsampling : 4:2:0Bit depth : 8 bitsScan type : InterlacedScan type, store method : Separated fieldsScan order : Top Field FirstBits/(Pixel*Frame) : 0.152Stream size : 2.42 GiB (91%)Color range : LimitedColor primaries : BT.709Transfer characteristics : BT.709Matrix coefficients : BT.709

Audio #1ID : 402 (0x192)Menu ID : 26002 (0x6592)Format : AC-3Format/Info : Audio Coding 3Codec ID : 6Duration : 43 min 55 sBit rate mode : ConstantBit rate : 192 kb/sChannel(s) : 2 channelsChannel positions : Front: L RSampling rate : 48.0 kHzFrame rate : 31.250 FPS (1536 SPF)Bit depth : 16 bitsCompression mode : LossyDelay relative to video : -40 msStream size : 60.3 MiB (2%)Language : RussianService kind : Complete Main

Audio #2ID : 422 (0x1A6)Menu ID : 26002 (0x6592)Format : AC-3Format/Info : Audio Coding 3Codec ID : 6Duration : 43 min 55 sBit rate mode : ConstantBit rate : 192 kb/sChannel(s) : 2 channelsChannel positions : Front: L RSampling rate : 48.0 kHzFrame rate : 31.250 FPS (1536 SPF)Bit depth : 16 bitsCompression mode : LossyDelay relative to video : -40 msStream size : 60.3 MiB (2%)Language : EnglishService kind : Complete Main


Трекер:  [ 27-Июл-2018 12:06 ]

  

Скачать .torrent

Размер .torrent файла 14 KB


Размер: 2.67 GB
Хэш (hash) релиза: 29eeba0391a94738a769b8a4f5ca25ea12e417c2
Подписка на обновления:

Еще никто не оставлял запись к записи скачать торрент Осушить океан: Бермудский треугольник Drain the Bermuda Triangle . Будь первым!

!Обратная связь