Скачать через торрент Царство больших акул Big Sharks Rule Фильм бесплатно в хорошем качестве torrent

Скачивайте на UnionPeer.org фильмы через торрент без регистрации. Новинки кино в хорошем качестве через торрент. На UnionPeer.org можно скачать через торрент фильмы 2014 и 2015 годов. Самые новые фильмы.

Скачать торрент Царство больших акул Big Sharks Rule бесплатно через .torrent фильм мультфильм сериал

Статистика раздачи
Размер:  2.35 GB   |    Зарегистрирован:  4 месяца 24 дня   |    .torrent скачан:  42 раза   |   
Раздают:  1  
   
загрузка...
 
Автор Сообщение

Galfimbul

avatar Galfimbul


Царство больших акул / Big Sharks Rule

Год выпуска: 2018
Страна: USA
Студия: Earth Touch
Жанр: Документальный
Продолжительность: 00:43:52
Перевод: Студийный (одноголосый закадровый)
Доп. инфо о переводе: Велес / Олег Белов
Русские субтитры: нет

Режиссер: Меа Тренор / Mea Trenor

Описание:

В этом фильме вам предстоит путешествие в королевство Больших Акул. Что это за существа? Как они выживают? Почему они обитают именно в этом месте, и как они умудряются вырасти до таких невероятных размеров?
Сэмпл: http://multi-up.com/1204699

Тип релиза: HDTV 1080i
Контейнер: TS

Видео: AVC, 1920x1080, (16:9), 25 fps, 6 897 kb/s
Аудио: Russian, MP2, 48 kHz, 2 ch; 192 kbps
Аудио 2: English, MP2, 48 kHz, 2 ch; 192 kbps
GeneralID : 1 (0x1)Complete name : F:\Царство больших акул_HDTV 1080i_RUS_ENG-dds.tsFormat : MPEG-TSFile size : 2.35 GiBDuration : 43 min 52 sOverall bit rate mode : VariableOverall bit rate : 7 663 kb/s

VideoID : 201 (0xC9)Menu ID : 20101 (0x4E85)Format : AVCFormat/Info : Advanced Video CodecFormat profile : [email protected] settings : CABAC / 4 Ref FramesFormat settings, CABAC : YesFormat settings, RefFrames : 4 framesCodec ID : 27Duration : 43 min 52 sBit rate : 6 897 kb/sWidth : 1 920 pixelsHeight : 1 080 pixelsDisplay aspect ratio : 16:9Frame rate : 25.000 FPSStandard : ComponentColor space : YUVChroma subsampling : 4:2:0Bit depth : 8 bitsScan type : InterlacedScan type, store method : Separated fieldsScan order : Top Field FirstBits/(Pixel*Frame) : 0.133Stream size : 2.11 GiB (90%)Color range : LimitedColor primaries : BT.709Transfer characteristics : BT.709Matrix coefficients : BT.709

Audio #1ID : 301 (0x12D)Menu ID : 20101 (0x4E85)Format : MPEG AudioFormat version : Version 1Format profile : Layer 2Codec ID : 3Duration : 43 min 52 sBit rate mode : ConstantBit rate : 192 kb/sChannel(s) : 2 channelsSampling rate : 48.0 kHzFrame rate : 41.667 FPS (1152 SPF)Compression mode : LossyStream size : 60.3 MiB (3%)Language : Russian

Audio #2ID : 401 (0x191)Menu ID : 20101 (0x4E85)Format : MPEG AudioFormat version : Version 1Format profile : Layer 2Codec ID : 3Duration : 43 min 52 sBit rate mode : ConstantBit rate : 192 kb/sChannel(s) : 2 channelsSampling rate : 48.0 kHzFrame rate : 41.667 FPS (1152 SPF)Compression mode : LossyStream size : 60.3 MiB (3%)Language : English


Трекер:  [ 26-Июл-2018 14:06 ]

  

Скачать .torrent

Размер .torrent файла 12 KB


Размер: 2.35 GB
Хэш (hash) релиза: f8f1851578284127151d889c9ebc58b9d5fe214d
Подписка на обновления:

Еще никто не оставлял запись к записи скачать торрент Царство больших акул Big Sharks Rule . Будь первым!

!Обратная связь