Скачать через торрент Наедине с акулами. Ронда Роузи Ronda Rousey Uncaged Фильм бесплатно в хорошем качестве torrent

Скачивайте на UnionPeer.org фильмы через торрент без регистрации. Новинки кино в хорошем качестве через торрент. На UnionPeer.org можно скачать через торрент фильмы 2014 и 2015 годов. Самые новые фильмы.

Скачать торрент Наедине с акулами. Ронда Роузи Ronda Rousey Uncaged бесплатно через .torrent фильм мультфильм сериал

Статистика раздачи
Размер:  2.37 GB   |    Зарегистрирован:  2 месяца 22 дня   |    .torrent скачан:  27 раз   |   
Раздают:  1  
   
загрузка...
 
Автор Сообщение

Galfimbul

avatar Galfimbul


Наедине с акулами. Ронда Роузи / Ronda Rousey Uncaged

Год выпуска: 2018
Страна: USA
Студия: Discovery
Жанр: Документальный
Продолжительность: 00:43:44
Перевод: Одноголосый закадровый
Русские субтитры: нет

Режиссер: Хосе Коррильо / Jose Corrillo

Описание:

Ронду Роузи, экс-чемпионку UFC в легком весе среди женщин, однажды назвали акулой, одиноко плавающей в океане. Поклонники так высоко оценивали ее бойцовские качества, что не видели равных в ее весовой категории. Теперь ей придется поплавать в океане уже не в одиночку, а с другими акулами - причем самыми настоящими. Ронда проверит себя и пощекочет нервы зрителям, приблизившись к представительнице одного из самых опасных видов, к большой белой акуле.
Сэмпл: http://multi-up.com/1204695

Тип релиза: HDTV 1080i
Контейнер: TS

Видео: AVC, 1920x1080, (16:9), 25 fps, 6.6 Mbps
Аудио: Russian, AC3, 48 kHz, 6 ch; 386 kbps
Аудио 2: English, AC3, 48 kHz, 6 ch; 386 kbps
GeneralID : 1 (0x1)Complete name : F:\Наедине с акулами. Ронда Роузи_HDTV 1080i_RUS_ENG-dds.tsFormat : MPEG-TSFile size : 2.37 GiBDuration : 43 min 44 sOverall bit rate mode : VariableOverall bit rate : 7 752 kb/s

VideoID : 325 (0x145)Menu ID : 12105 (0x2F49)Format : AVCFormat/Info : Advanced Video CodecFormat profile : [email protected] settings : CABAC / 4 Ref FramesFormat settings, CABAC : YesFormat settings, RefFrames : 4 framesCodec ID : 27Duration : 43 min 44 sBit rate : 6 593 kb/sWidth : 1 920 pixelsHeight : 1 080 pixelsDisplay aspect ratio : 16:9Frame rate : 25.000 FPSStandard : ComponentColor space : YUVChroma subsampling : 4:2:0Bit depth : 8 bitsScan type : InterlacedScan type, store method : Separated fieldsScan order : Top Field FirstBits/(Pixel*Frame) : 0.127Stream size : 2.01 GiB (85%)Color range : LimitedColor primaries : BT.709Transfer characteristics : BT.709Matrix coefficients : BT.709

Audio #1ID : 405 (0x195)Menu ID : 12105 (0x2F49)Format : AC-3Format/Info : Audio Coding 3Codec ID : 6Duration : 43 min 44 sBit rate mode : ConstantBit rate : 384 kb/sChannel(s) : 6 channelsChannel positions : Front: L C R, Side: L R, LFESampling rate : 48.0 kHzFrame rate : 31.250 FPS (1536 SPF)Bit depth : 16 bitsCompression mode : LossyStream size : 120 MiB (5%)Language : RussianService kind : Complete Main

Audio #2ID : 425 (0x1A9)Menu ID : 12105 (0x2F49)Format : AC-3Format/Info : Audio Coding 3Codec ID : 6Duration : 43 min 44 sBit rate mode : ConstantBit rate : 384 kb/sChannel(s) : 6 channelsChannel positions : Front: L C R, Side: L R, LFESampling rate : 48.0 kHzFrame rate : 31.250 FPS (1536 SPF)Bit depth : 16 bitsCompression mode : LossyStream size : 120 MiB (5%)Language : EnglishService kind : Complete Main


Трекер:  [ 26-Июл-2018 13:06 ]

  

Скачать .torrent

Размер .torrent файла 12 KB


Размер: 2.37 GB
Хэш (hash) релиза: 78c36bff0093d7126b9cd8fd43f375130636cdca
Подписка на обновления:

Еще никто не оставлял запись к записи скачать торрент Наедине с акулами. Ронда Роузи Ronda Rousey Uncaged . Будь первым!

!Обратная связь