Скачать через торрент Призрак большой белой Great Whaite Abyss Фильм бесплатно в хорошем качестве torrent

Скачивайте на UnionPeer.org фильмы через торрент без регистрации. Новинки кино в хорошем качестве через торрент. На UnionPeer.org можно скачать через торрент фильмы 2014 и 2015 годов. Самые новые фильмы.

Скачать торрент Призрак большой белой Great Whaite Abyss бесплатно через .torrent фильм мультфильм сериал

Статистика раздачи
Размер:  2.22 GB   |    Зарегистрирован:  2 месяца 22 дня   |    .torrent скачан:  27 раз   |   
Раздают:  1  
   
загрузка...
 
Автор Сообщение

Galfimbul

avatar Galfimbul


Призрак большой белой / Great Whaite Abyss

Год выпуска: 2018
Страна: USA
Студия: Discovery
Жанр: Документальный
Продолжительность: 00:44:09
Перевод: Одноголосый закадровый
Русские субтитры: нет

Режиссер: Арун Тейлор / Arun Taylor

Описание:
Эксперты по акулам Джими Партингтон и Брендон Макмиллан отправляются в опасную экспедицию в темные глубины. Они погрузятся на морское дно в специальном подводном аппарате у берегов острова Гуадалупе, где якобы видели акулу чудовищных размеров. По слухам, ее длина превышала шесть метров, и ученые решили выяснить, что стоит за этими рассказами.

Сэмпл: http://multi-up.com/1204692

Тип релиза: HDTV 1080i
Контейнер: TS

Видео: AVC, 1920x1080, (16:9), 25 fps, 6.1 Mbps
Аудио: Russian, AC3, 48 kHz, 6 ch; 386 kbps
Аудио 2: English, AC3, 48 kHz, 6 ch; 386 kbps
GeneralID : 1 (0x1)Complete name : F:Призрак большой белой_HDTV 1080i_RUS_ENG-dds.tsFormat : MPEG-TSFile size : 2.22 GiBDuration : 44 min 9 sOverall bit rate mode : VariableOverall bit rate : 7 194 kb/s

VideoID : 325 (0x145)Menu ID : 12105 (0x2F49)Format : AVCFormat/Info : Advanced Video CodecFormat profile : [email protected] settings : CABAC / 4 Ref FramesFormat settings, CABAC : YesFormat settings, RefFrames : 4 framesCodec ID : 27Duration : 44 min 9 sBit rate : 6 063 kb/sWidth : 1 920 pixelsHeight : 1 080 pixelsDisplay aspect ratio : 16:9Frame rate : 25.000 FPSStandard : ComponentColor space : YUVChroma subsampling : 4:2:0Bit depth : 8 bitsScan type : InterlacedScan type, store method : Separated fieldsScan order : Top Field FirstBits/(Pixel*Frame) : 0.117Stream size : 1.87 GiB (84%)Color range : LimitedColor primaries : BT.709Transfer characteristics : BT.709Matrix coefficients : BT.709

Audio #1ID : 405 (0x195)Menu ID : 12105 (0x2F49)Format : AC-3Format/Info : Audio Coding 3Codec ID : 6Duration : 44 min 9 sBit rate mode : ConstantBit rate : 384 kb/sChannel(s) : 6 channelsChannel positions : Front: L C R, Side: L R, LFESampling rate : 48.0 kHzFrame rate : 31.250 FPS (1536 SPF)Bit depth : 16 bitsCompression mode : LossyDelay relative to video : -40 msStream size : 121 MiB (5%)Language : RussianService kind : Complete Main

Audio #2ID : 425 (0x1A9)Menu ID : 12105 (0x2F49)Format : AC-3Format/Info : Audio Coding 3Codec ID : 6Duration : 44 min 9 sBit rate mode : ConstantBit rate : 384 kb/sChannel(s) : 6 channelsChannel positions : Front: L C R, Side: L R, LFESampling rate : 48.0 kHzFrame rate : 31.250 FPS (1536 SPF)Bit depth : 16 bitsCompression mode : LossyDelay relative to video : -40 msStream size : 121 MiB (5%)Language : EnglishService kind : Complete Main


Трекер:  [ 26-Июл-2018 11:06 ]

  

Скачать .torrent

Размер .torrent файла 11 KB


Размер: 2.22 GB
Хэш (hash) релиза: 22875538e6bebe0b3eda9e5535f14d5f35131eb9
Подписка на обновления:

Еще никто не оставлял запись к записи скачать торрент Призрак большой белой Great Whaite Abyss . Будь первым!

!Обратная связь