Скачать через торрент Акула против хищников Shark v. Predator Фильм бесплатно в хорошем качестве torrent

Скачивайте на UnionPeer.org фильмы через торрент без регистрации. Новинки кино в хорошем качестве через торрент. На UnionPeer.org можно скачать через торрент фильмы 2014 и 2015 годов. Самые новые фильмы.

Скачать торрент Акула против хищников Shark v. Predator бесплатно через .torrent фильм мультфильм сериал

Статистика раздачи
Размер:  2.41 GB   |    Зарегистрирован:  2 месяца 22 дня   |    .torrent скачан:  39 раз   |   
Раздают:  1  
   
загрузка...
 
Автор Сообщение

Galfimbul

avatar Galfimbul


Акула против хищников / Shark v. Predator

Год выпуска: 2017
Страна: USA
Студия: Earth Touch
Жанр: Документальный
Продолжительность: 00:43:45
Перевод: Одноголосый закадровый
Русские субтитры: нет

Режиссер: Даниэль Шейр / Daniel Sheire

Описание:

Редкие и примечательные примеры нападения на акул различных животных, зафиксированные как профессиональными фотографами, так и случайными свидетелями, позволяют осознать, что первенству даже самых грозных хищников вполне может быть брошен вызов.

Сэмпл: http://multi-up.com/1204688

Тип релиза: HDTV 1080i
Контейнер: TS

Видео: AVC, 1920x1080, (16:9), 25 fps, 7 118 kb/s
Аудио: Russian, MP2, 48 kHz, 2 ch; 192 kbps
Аудио 2: English, MP2, 48 kHz, 2 ch; 192 kbps
GeneralID : 1 (0x1)Complete name : F:\Акула против хищников_HDTV 1080i_RUS_ENG-dds.tsFormat : MPEG-TSFile size : 2.41 GiBDuration : 43 min 45 sOverall bit rate mode : VariableOverall bit rate : 7 896 kb/s

VideoID : 201 (0xC9)Menu ID : 20101 (0x4E85)Format : AVCFormat/Info : Advanced Video CodecFormat profile : [email protected] settings : CABAC / 4 Ref FramesFormat settings, CABAC : YesFormat settings, RefFrames : 4 framesCodec ID : 27Duration : 43 min 45 sBit rate : 7 118 kb/sWidth : 1 920 pixelsHeight : 1 080 pixelsDisplay aspect ratio : 16:9Frame rate : 25.000 FPSStandard : ComponentColor space : YUVChroma subsampling : 4:2:0Bit depth : 8 bitsScan type : InterlacedScan type, store method : Separated fieldsScan order : Top Field FirstBits/(Pixel*Frame) : 0.137Stream size : 2.18 GiB (90%)Color range : LimitedColor primaries : BT.709Transfer characteristics : BT.709Matrix coefficients : BT.709

Audio #1ID : 301 (0x12D)Menu ID : 20101 (0x4E85)Format : MPEG AudioFormat version : Version 1Format profile : Layer 2Codec ID : 3Duration : 43 min 45 sBit rate mode : ConstantBit rate : 192 kb/sChannel(s) : 2 channelsSampling rate : 48.0 kHzFrame rate : 41.667 FPS (1152 SPF)Compression mode : LossyStream size : 60.1 MiB (2%)Language : Russian

Audio #2ID : 401 (0x191)Menu ID : 20101 (0x4E85)Format : MPEG AudioFormat version : Version 1Format profile : Layer 2Codec ID : 3Duration : 43 min 45 sBit rate mode : ConstantBit rate : 192 kb/sChannel(s) : 2 channelsSampling rate : 48.0 kHzFrame rate : 41.667 FPS (1152 SPF)Compression mode : LossyStream size : 60.1 MiB (2%)Language : English


Трекер:  [ 26-Июл-2018 10:36 ]

  

Скачать .torrent

Размер .torrent файла 12 KB


Размер: 2.41 GB
Хэш (hash) релиза: ec7302ad96adbfc7396c1818c4f17ede2fe87046
Подписка на обновления:

Еще никто не оставлял запись к записи скачать торрент Акула против хищников Shark v. Predator . Будь первым!

!Обратная связь