Скачать через торрент Апокалипсис для животных Worlds Deadliest Animal Apocalypse Фильм бесплатно в хорошем качестве torrent

Скачивайте на UnionPeer.org фильмы через торрент без регистрации. Новинки кино в хорошем качестве через торрент. На UnionPeer.org можно скачать через торрент фильмы 2014 и 2015 годов. Самые новые фильмы.

Скачать торрент Апокалипсис для животных Worlds Deadliest Animal Apocalypse бесплатно через .torrent фильм мультфильм сериал

Статистика раздачи
Размер:  2.24 GB   |    Зарегистрирован:  2 месяца 23 дня   |    .torrent скачан:  39 раз   |   
Раздают:  1  
   
загрузка...
 
Автор Сообщение

Galfimbul

avatar Galfimbul


Апокалипсис для животных / World's Deadliest Animal Apocalypse

Страна: США
Студия: Goodbye Pictures, National Geographic Channels, Nat Geo Wild
Жанр: Документальный, флора
Год выпуска: 2013
Продолжительность: 00:45:00

Перевод: Профессиональный (дублированный) - Студия АРК·ТВ, текст читал Игорь Тарадайкин
Субтитры: нет
Оригинальная аудиодорожка: Английский

Режиссёр: Рич Бай / Rich Bye

Описание: Национальный заповедник Масаи-Мара в Кении - 10 000 мигрирующих антилоп гну загадочным образом тонут в реке.. Город Биб в штате Арканзас - 5 000 чёрных трупиалов во время полёта неожиданно умирают и падают на землю... Остров Кинг, Тасмания - 200 дельфинов-гринд выбрасываются на берег... Являются ли эти случаи массовой гибели животных чем-то паранормальным?! Или же происходит что-то абсолютно новое и необъяснимое!?

Доп. информация:
Автор релиза -
Исходник - HDTV 1080i TS - моя запись с канала Nat Geo Wild HD
Документальный дубляж - голос рассказчика полностью дублирован, интервью - закадровый перевод.

Сэмпл: http://multi-up.com/1204646

Рекламы нет!

Качество видео: HDTV 1080i
Формат видео: TS

Видео: MPEG-4, 1920x1080 (16:9), 25.000 fps, 6500 kbps, 0.125 bit/pixel
Аудио 1: Русский MP2, 48000 Гц, 2ch, 192 kbps
Аудио 2: Английский MP2, 48000 Гц, 2ch, 192 kbps
ОбщееИдентификатор : 1 (0x1)Полное имя : D:\World's.Deadliest.Animal.Apocalypse.2013.HDTV.1080i-ylnian.tsФормат : MPEG-TSРазмер файла : 2,24 ГбайтПродолжительность : 44 м. 59 с.Режим общего битрейта : ПеременныйОбщий поток : 7133 Кбит/сек

ВидеоИдентификатор : 2061 (0x80D)Идентификатор меню : 2060 (0x80C)Формат : AVCФормат/Информация : Advanced Video CodecПрофиль формата : [email protected]Настройки формата : CABAC / 2 Ref FramesПараметр CABAC формата : ДаПараметр RefFrames формата : 2 кадраПараметр GOP формата : M=3, N=32Идентификатор кодека : 27Продолжительность : 44 м. 59 с.Вид битрейта : ПостоянныйБитрейт : 6500 Кбит/секШирина : 1920 пикселейВысота : 1080 пикселейСоотношение сторон : 16:9Частота кадров : 25,000 кадров/секЦветовое пространство : YUVСубдискретизация насыщенности : 4:2:0Битовая глубина : 8 битТип развёртки : ЧересстрочнаяМетод сохранения типа развёртки : Раздельные поляПорядок развёртки : Верхнее поле первоеБит/(Пиксели*Кадры) : 0.125Размер потока : 2,01 Гбайт (90%)

Аудио #1Идентификатор : 2062 (0x80E)Идентификатор меню : 2060 (0x80C)Формат : MPEG AudioВерсия формата : Version 1Профиль формата : Layer 2Идентификатор кодека : 3Продолжительность : 44 м. 59 с.Вид битрейта : ПостоянныйБитрейт : 192 Кбит/секКаналы : 2 каналаЧастота : 48,0 КГцЧастота кадров : 41,667 кадра/сек (1152 SPF)Метод сжатия : С потерямиРазмер потока : 61,8 Мбайт (3%)Язык : Russian

Аудио #2Идентификатор : 2063 (0x80F)Идентификатор меню : 2060 (0x80C)Формат : MPEG AudioВерсия формата : Version 1Профиль формата : Layer 2Идентификатор кодека : 3Продолжительность : 44 м. 59 с.Вид битрейта : ПостоянныйБитрейт : 192 Кбит/секКаналы : 2 каналаЧастота : 48,0 КГцЧастота кадров : 41,667 кадра/сек (1152 SPF)Метод сжатия : С потерямиРазмер потока : 61,8 Мбайт (3%)Язык : English


Трекер:  [ 25-Июл-2018 20:36 ]

  

Скачать .torrent

Размер .torrent файла 11 KB


Размер: 2.24 GB
Хэш (hash) релиза: 3a483b738ef32d761c1ff39ef8ed906abde3431a
Подписка на обновления:

Еще никто не оставлял запись к записи скачать торрент Апокалипсис для животных Worlds Deadliest Animal Apocalypse . Будь первым!

!Обратная связь