Скачать через торрент Нашествие гигантских медуз Attack of The Giant Jellyfish Фильм бесплатно в хорошем качестве torrent

Скачивайте на UnionPeer.org фильмы через торрент без регистрации. Новинки кино в хорошем качестве через торрент. На UnionPeer.org можно скачать через торрент фильмы 2014 и 2015 годов. Самые новые фильмы.

Скачать торрент Нашествие гигантских медуз Attack of The Giant Jellyfish бесплатно через .torrent фильм мультфильм сериал

Статистика раздачи
Размер:  3.1 GB   |    Зарегистрирован:  4 месяца 23 дня   |    .torrent скачан:  33 раза   |   
Раздают:  1  
   
загрузка...
 
Автор Сообщение

Galfimbul

avatar Galfimbul


Нашествие гигантских медуз / Attack of The Giant Jellyfish

Год выпуска: 2010
Страна: USA
Студия: Discovery
Жанр: Документальный
Продолжительность: 00:43:18
Перевод: Студийный (одноголосый закадровый)
Доп. инфо о переводе: ARK TV/Ольга Зубкова
Режиссер: Карстен Обландер / Carsten Oblaender

Описание:
Мир по угрозой! Армия бескровных, бескостных фантомов с океанских глубин, их становиться всё больше.
Сэмпл: http://multi-up.com/1204618

Тип релиза: HDTV 1080i
Контейнер: TS

Видео: AVC, 1920x1080, (16:9), 25 fps, 9.0 Mbps
Аудио: Russian, AC3, 48 kHz, 6 ch; 386 kbps
Аудио 2: English, AC3, 48 kHz, 6 ch; 386 kbps
GeneralID : 1 (0x1)Complete name : F:\Нашествие гигантских медуз_HDTV 1080i_RUS_ENG-dds.tsFormat : MPEG-TSFile size : 3.10 GiBDuration : 43 min 18 sOverall bit rate mode : VariableOverall bit rate : 10.2 Mb/s

VideoID : 202 (0xCA)Menu ID : 2202 (0x89A)Format : AVCFormat/Info : Advanced Video CodecFormat profile : [email protected] settings : CABAC / 4 Ref FramesFormat settings, CABAC : YesFormat settings, RefFrames : 4 framesFormat settings, GOP : M=4, N=28Codec ID : 27Duration : 43 min 18 sBit rate : 8 953 kb/sWidth : 1 920 pixelsHeight : 1 080 pixelsDisplay aspect ratio : 16:9Frame rate : 25.000 FPSStandard : ComponentColor space : YUVChroma subsampling : 4:2:0Bit depth : 8 bitsScan type : InterlacedScan type, store method : Separated fieldsScan order : Top Field FirstBits/(Pixel*Frame) : 0.173Stream size : 2.71 GiB (87%)Color range : LimitedColor primaries : BT.709Transfer characteristics : BT.709Matrix coefficients : BT.709

Audio #1ID : 302 (0x12E)Menu ID : 2202 (0x89A)Format : AC-3Format/Info : Audio Coding 3Codec ID : 6Duration : 43 min 18 sBit rate mode : ConstantBit rate : 384 kb/sChannel(s) : 6 channelsChannel positions : Front: L C R, Side: L R, LFESampling rate : 48.0 kHzFrame rate : 31.250 FPS (1536 SPF)Bit depth : 16 bitsCompression mode : LossyStream size : 119 MiB (4%)Language : RussianService kind : Complete Main

Audio #2ID : 402 (0x192)Menu ID : 2202 (0x89A)Format : AC-3Format/Info : Audio Coding 3Codec ID : 6Duration : 43 min 18 sBit rate mode : ConstantBit rate : 384 kb/sChannel(s) : 6 channelsChannel positions : Front: L C R, Side: L R, LFESampling rate : 48.0 kHzFrame rate : 31.250 FPS (1536 SPF)Bit depth : 16 bitsCompression mode : LossyStream size : 119 MiB (4%)Language : EnglishService kind : Complete Main


Трекер:  [ 25-Июл-2018 11:06 ]

  

Скачать .torrent

Размер .torrent файла 16 KB


Размер: 3.1 GB
Хэш (hash) релиза: 104ce1c799df057422cda7c7dda7b12e1a30feb5
Подписка на обновления:

Еще никто не оставлял запись к записи скачать торрент Нашествие гигантских медуз Attack of The Giant Jellyfish . Будь первым!

!Обратная связь