Скачать через торрент Акулы ниндзя Ninja Sharks Фильм бесплатно в хорошем качестве torrent

Скачивайте на UnionPeer.org фильмы через торрент без регистрации. Новинки кино в хорошем качестве через торрент. На UnionPeer.org можно скачать через торрент фильмы 2014 и 2015 годов. Самые новые фильмы.

Скачать торрент Акулы ниндзя Ninja Sharks бесплатно через .torrent фильм мультфильм сериал

Статистика раздачи
Размер:  2.41 GB   |    Зарегистрирован:  4 месяца 25 дней   |    .torrent скачан:  26 раз   |   
Раздают:  1  
   
загрузка...
 
Автор Сообщение

Galfimbul

avatar Galfimbul


Акулы ниндзя / Ninja Sharks

Год выпуска: 2015
Страна: USA
Студия: Discovery
Жанр: Документальный
Продолжительность: 00:42:33
Перевод: Одноголосый закадровый
Русские субтитры: нет

Режиссер: Дженнифер Беман / Jennifer Beman

Описание:
Вас ждет знакомство с шестью акулами, обладающими уникальной приспобляемостью. Они эволюционировали в течение миллионов лет, чтобы стать самыми опасными морскими хищниками.


Сэмпл: http://multi-up.com/1204616

Тип релиза: HDTV 1080i
Контейнер: TS

Видео: AVC, 1920x1080, (16:9), 25 fps, 6.9 Mbps
Аудио: Russian, AC3, 48 kHz, 6 ch; 386 kbps
Аудио 2: English, AC3, 48 kHz, 6 ch; 386 kbps
GeneralID : 1 (0x1)Complete name : F:\Акулы - ниндзя_HDTV 1080i_RUS_ENG-dds.tsFormat : MPEG-TSFile size : 2.41 GiBDuration : 42 min 33 sOverall bit rate mode : VariableOverall bit rate : 8 114 kb/s

VideoID : 202 (0xCA)Menu ID : 2202 (0x89A)Format : AVCFormat/Info : Advanced Video CodecFormat profile : [email protected] settings : CABAC / 4 Ref FramesFormat settings, CABAC : YesFormat settings, RefFrames : 4 framesCodec ID : 27Duration : 42 min 33 sBit rate : 6 937 kb/sWidth : 1 920 pixelsHeight : 1 080 pixelsDisplay aspect ratio : 16:9Frame rate : 25.000 FPSStandard : ComponentColor space : YUVChroma subsampling : 4:2:0Bit depth : 8 bitsScan type : InterlacedScan type, store method : Separated fieldsScan order : Top Field FirstBits/(Pixel*Frame) : 0.134Stream size : 2.06 GiB (85%)Color range : LimitedColor primaries : BT.709Transfer characteristics : BT.709Matrix coefficients : BT.709

Audio #1ID : 302 (0x12E)Menu ID : 2202 (0x89A)Format : AC-3Format/Info : Audio Coding 3Codec ID : 6Duration : 42 min 33 sBit rate mode : ConstantBit rate : 384 kb/sChannel(s) : 6 channelsChannel positions : Front: L C R, Side: L R, LFESampling rate : 48.0 kHzFrame rate : 31.250 FPS (1536 SPF)Bit depth : 16 bitsCompression mode : LossyStream size : 117 MiB (5%)Language : RussianService kind : Complete Main

Audio #2ID : 402 (0x192)Menu ID : 2202 (0x89A)Format : AC-3Format/Info : Audio Coding 3Codec ID : 6Duration : 42 min 33 sBit rate mode : ConstantBit rate : 384 kb/sChannel(s) : 6 channelsChannel positions : Front: L C R, Side: L R, LFESampling rate : 48.0 kHzFrame rate : 31.250 FPS (1536 SPF)Bit depth : 16 bitsCompression mode : LossyStream size : 117 MiB (5%)Language : EnglishService kind : Complete Main


Трекер:  [ 25-Июл-2018 10:36 ]

  

Скачать .torrent

Размер .torrent файла 12 KB


Размер: 2.41 GB
Хэш (hash) релиза: 67c63b7494cda780e5ab3b2d474a3716c4ac229e
Подписка на обновления:

Еще никто не оставлял запись к записи скачать торрент Акулы ниндзя Ninja Sharks . Будь первым!

!Обратная связь