Скачать через торрент Вторжение гигантских питонов Invasion of The Giant Pythons: Florida With Nigel Marven Фильм бесплатно в хорошем качестве torrent

Скачивайте на UnionPeer.org фильмы через торрент без регистрации. Новинки кино в хорошем качестве через торрент. На UnionPeer.org можно скачать через торрент фильмы 2014 и 2015 годов. Самые новые фильмы.

Скачать торрент Вторжение гигантских питонов Invasion of The Giant Pythons: Florida With Nigel Marven бесплатно через .torrent фильм мультфильм сериал

Статистика раздачи
Размер:  2.85 GB   |    Зарегистрирован:  2 месяца 23 дня   |    .torrent скачан:  23 раза   |   
Раздают:  1  
   
загрузка...
 
Автор Сообщение

Galfimbul

avatar Galfimbul


Вторжение гигантских питонов / Invasion of The Giant Pythons: Florida With Nigel Marven

Год выпуска: 2009
Страна: Великобритания
Студия: Image Impact
Жанр: Документальный
Продолжительность: 00:44:58
Перевод: Студийный (одноголосый закадровый)
Доп. инфо о переводе: RedMedia/Игорь Куликов
Русские субтитры: нет

Режиссер: Хейли Замер/Haley Zamer

Описание:

Найджел Марвен расследует проблему питонов на юге Флориды, где проживают десятки тысяч темных тигровых питонов.

Сэмпл: http://multi-up.com/1204614

Тип релиза: HDTV 720p
Контейнер: TS

Видео: AVC, 1280x720 (16:9), 50 fps, 8 357 kb/s, 0.181 bit/pixel
Аудио: Russian, MP2, 48 kHz, 2 ch; 128 kbps
Аудио 2: English, MP2, 48 kHz, 2 ch; 128 kbps
GeneralID : 1 (0x1)Complete name : F:\Вторжение гигантских питонов_HDTV 720p_RUS_ENG-dds.tsFormat : MPEG-TSFile size : 2.85 GiBDuration : 44 min 58 sOverall bit rate mode : VariableOverall bit rate : 9 063 kb/s

VideoID : 305 (0x131)Menu ID : 17105 (0x42D1)Format : AVCFormat/Info : Advanced Video CodecFormat profile : [email protected] settings : CABAC / 5 Ref FramesFormat settings, CABAC : YesFormat settings, RefFrames : 5 framesCodec ID : 27Duration : 44 min 58 sBit rate : 8 357 kb/sWidth : 1 280 pixelsHeight : 720 pixelsDisplay aspect ratio : 16:9Frame rate : 50.000 FPSStandard : ComponentColor space : YUVChroma subsampling : 4:2:0Bit depth : 8 bitsScan type : ProgressiveBits/(Pixel*Frame) : 0.181Stream size : 2.63 GiB (92%)Color range : LimitedColor primaries : BT.709Transfer characteristics : BT.709Matrix coefficients : BT.709

Audio #1ID : 405 (0x195)Menu ID : 17105 (0x42D1)Format : MPEG AudioFormat version : Version 1Format profile : Layer 2Codec ID : 3Duration : 44 min 58 sBit rate mode : ConstantBit rate : 128 kb/sChannel(s) : 2 channelsSampling rate : 48.0 kHzFrame rate : 41.667 FPS (1152 SPF)Compression mode : LossyDelay relative to video : -140 msStream size : 41.2 MiB (1%)Language : Russian

Audio #2ID : 425 (0x1A9)Menu ID : 17105 (0x42D1)Format : MPEG AudioFormat version : Version 1Format profile : Layer 2Codec ID : 3Duration : 44 min 58 sBit rate mode : ConstantBit rate : 128 kb/sChannel(s) : 2 channelsSampling rate : 48.0 kHzFrame rate : 41.667 FPS (1152 SPF)Compression mode : LossyDelay relative to video : -140 msStream size : 41.2 MiB (1%)Language : English


Трекер:  [ 25-Июл-2018 10:06 ]

  

Скачать .torrent

Размер .torrent файла 14 KB


Размер: 2.85 GB
Хэш (hash) релиза: 4ac7ed9bc91a39583502d1ae9fd37d138fb62c6a
Подписка на обновления:

Еще никто не оставлял запись к записи скачать торрент Вторжение гигантских питонов Invasion of The Giant Pythons: Florida With Nigel Marven . Будь первым!

!Обратная связь