Скачать через торрент Глубоководные киты Whales of the deep Фильм бесплатно в хорошем качестве torrent

Скачивайте на UnionPeer.org фильмы через торрент без регистрации. Новинки кино в хорошем качестве через торрент. На UnionPeer.org можно скачать через торрент фильмы 2014 и 2015 годов. Самые новые фильмы.

Скачать торрент Глубоководные киты Whales of the deep бесплатно через .torrent фильм мультфильм сериал

Статистика раздачи
Размер:  2.2 GB   |    Зарегистрирован:  4 месяца 25 дней   |    .torrent скачан:  40 раз   |   
Раздают:  1  
   
загрузка...
 
Автор Сообщение

Galfimbul

avatar Galfimbul


Глубоководные киты / Whales of the deep

Страна: Франция
Студия: Saint Thomas Productions, Arte France, National Geographic Channels, Nat Geo Wild
Жанр: Документальный, флора
Год выпуска: 2017
Продолжительность: 00:43:59

Перевод: Профессиональный (дублированный) - Студия Велес, текст читал Олег Федоров
Субтитры: нет
Оригинальная аудиодорожка: Английский

Режиссёр: Бертран Лойер / Bertrand Loyer

Описание: Жизнь в глубинных водах океана жестока. Погружённый во тьму холодный мир находится под невероятным давлением. Это пучинное царство - обширнейшая среда обитания на нашей планете. И некоторые животные, которые также как и мы дышат воздухом и выкармливают своих детёнышей, проводят большую часть жизни в этом мире теней. Морские млекопитающие не перестают удивлять учёных - совсем недавно было выяснено, что киты ныряют намного глубже, чем все предполагали. Этот фильм, снятый с помощью прикрепленных к животным меток, камер, установленных в глубоких океанских впадинах и 3D-сканеров изображений, раскрывает нам секреты глубоководного выживания морских гигантов.

Доп. информация:
Автор релиза -
Исходник - HDTV 1080i TS - моя запись с канала Nat Geo Wild HD
Документальный дубляж - голос рассказчика полностью дублирован, интервью - закадровый перевод.

Сэмпл: http://multi-up.com/1204607

Рекламы нет!

Качество видео: HDTV 1080i
Формат видео: TS

Видео: MPEG-4, 1920x1080 (16:9), 25.000 fps, 6500 kbps, 0.125 bit/pixel
Аудио 1: Русский MP2, 48000 Гц, 2ch, 192 kbps
Аудио 2: Английский MP2, 48000 Гц, 2ch, 192 kbps
ОбщееИдентификатор : 1 (0x1)Полное имя : D:\Whales.of.the.deep.2017.HDTV.1080i-ylnian.tsФормат : MPEG-TSРазмер файла : 2,20 ГбайтПродолжительность : 43 м. 59 с.Режим общего битрейта : ПеременныйОбщий поток : 7144 Кбит/сек

ВидеоИдентификатор : 2061 (0x80D)Идентификатор меню : 2060 (0x80C)Формат : AVCФормат/Информация : Advanced Video CodecПрофиль формата : [email protected]Настройки формата : CABAC / 2 Ref FramesПараметр CABAC формата : ДаПараметр RefFrames формата : 2 кадраПараметр GOP формата : M=3, N=32Идентификатор кодека : 27Продолжительность : 43 м. 59 с.Вид битрейта : ПостоянныйБитрейт : 6500 Кбит/секШирина : 1920 пикселейВысота : 1080 пикселейСоотношение сторон : 16:9Частота кадров : 25,000 кадров/секЦветовое пространство : YUVСубдискретизация насыщенности : 4:2:0Битовая глубина : 8 битТип развёртки : ЧересстрочнаяМетод сохранения типа развёртки : Раздельные поляПорядок развёртки : Верхнее поле первоеБит/(Пиксели*Кадры) : 0.125Размер потока : 1,97 Гбайт (90%)

Аудио #1Идентификатор : 2062 (0x80E)Идентификатор меню : 2060 (0x80C)Формат : MPEG AudioВерсия формата : Version 1Профиль формата : Layer 2Идентификатор кодека : 3Продолжительность : 43 м. 59 с.Вид битрейта : ПостоянныйБитрейт : 192 Кбит/секКаналы : 2 каналаЧастота : 48,0 КГцЧастота кадров : 41,667 кадра/сек (1152 SPF)Метод сжатия : С потерямиРазмер потока : 60,4 Мбайт (3%)Язык : Russian

Аудио #2Идентификатор : 2063 (0x80F)Идентификатор меню : 2060 (0x80C)Формат : MPEG AudioВерсия формата : Version 1Профиль формата : Layer 2Идентификатор кодека : 3Продолжительность : 43 м. 59 с.Вид битрейта : ПостоянныйБитрейт : 192 Кбит/секКаналы : 2 каналаЧастота : 48,0 КГцЧастота кадров : 41,667 кадра/сек (1152 SPF)Метод сжатия : С потерямиРазмер потока : 60,4 Мбайт (3%)Язык : English


Трекер:  [ 25-Июл-2018 07:36 ]

  

Скачать .torrent

Размер .torrent файла 11 KB


Размер: 2.2 GB
Хэш (hash) релиза: 8521b414a4fe2ea78227c217a16e6f99807c9213
Подписка на обновления:

Еще никто не оставлял запись к записи скачать торрент Глубоководные киты Whales of the deep . Будь первым!

!Обратная связь