Скачать через торрент Мифы и чудовища Myths & Monsters Фильм бесплатно в хорошем качестве torrent

Скачивайте на UnionPeer.org фильмы через торрент без регистрации. Новинки кино в хорошем качестве через торрент. На UnionPeer.org можно скачать через торрент фильмы 2014 и 2015 годов. Самые новые фильмы.

Скачать торрент Мифы и чудовища Myths & Monsters бесплатно через .torrent фильм мультфильм сериал

Статистика раздачи
Размер:  13.55 GB   |    Зарегистрирован:  4 месяца 25 дней   |    .torrent скачан:  61 раз   |   
Раздают:  1  
   
загрузка...
 
Автор Сообщение

Galfimbul

avatar Galfimbul


Мифы и чудовища / Myths & Monsters

Год выпуска: 2017
Страна: Великобритания
Студия: 3DD Productions
Жанр: Документальный, фэнтези
Продолжительность: 6 x 00:43:00
Перевод: Одноголосый закадровый
Доп. инфо о переводе: SDI Media
Русские субтитры: нет

Режиссер: Даниэль Контур / Daniel Kontur

Описание: Уже на заре времен люди рассказывали друг другу истории. О всём том странном и удивительном, что таилось в причудливых тенях. Истории об ангельских созданиях и жутких чудищах, о Богах и Королях, о легендарных существах и монстрах. В темных чащах и скованных льдом землях, в бесплодных пустынях и бушующих морях - в каждом уголке земли оживали свои легенды. Откуда возникли эти истории? И почему мир рассказывает их по сей день? Только обратившись к истокам, мы сможем узнать, что явилось предпосылкой к их созданию - войны и болезни, религиозные и социальные потрясения, неукротимая ярость сил природы. Но в первую очередь монстры, таящиеся в каждом из нас...

Доп. информация: Релиз:
и

Сэмпл: http://multi-up.com/1204588

Тип релиза: WEB-DL 1080p
Контейнер: MKV

Видео: 1920x1080 at 25.000 fps, MPEG-4 AVC, ~ 7500 kbps avg
Аудио: Русский: 48 kHz, AC3, 2/0 (L,R) ch, ~128.00 kbps avg | SDI Media, текст читает Александр Воронов |
Аудио 2: English: 48 kHz, AC3, 2/0 (L,R) ch, ~128.00 kbps avg
Формат субтитров: softsub (SRT)
01. Герои и злодеи / Heroes & Villains
Эта серия изучает противоречивую теорию, утверждающую, что в мифологии существует общая структура, которая выше культурного и исторического влияния.
02. Неведомая глушь / The Wild Unknown
Эта серия показывает, что истории о дикой глуши и чудовищах, которые в ней обитают, могут рассказать нам о людях.
03. Война / War
На всем протяжении истории люди вели войны, и все цивилизации сталкивались с вопросами, которые поднимает война. Неудивительно, что военные мифы - одни из самых устойчивых.
04. Любовь и предательство / Love & Betrayal
Любовь - это универсальная и мощная эмоция, но она может быть деструктивной; страсть может уничтожать, а предательство - ранить. Эта иррациональная сила - источник вопросов для любого общества.
05. Изменение и революция (Как формируется сообщество?) / Change & Revolution
Эта серия описывает роль мифов и легенд, которые помогли определить правила общества и наказание тем, кто их нарушает.
06. Конец всех вещей (Смерть) / The End of All Things
Смерть - это пугающая и тревожная перспектива для всех нас: мифы и легенды рассказывают нам не только о самом страхе смерти, но и о том, что культура ценит в жизни.
ОбщееПолное имя : s01e03.War.Rus.Eng-BLUEBIRD.mkvФормат : MatroskaВерсия формата : Version 4 / Version 2Размер файла : 2,30 ГбайтПродолжительность : 42 м. 38 с.Режим общего битрейта : ПеременныйОбщий поток : 7729 Кбит/секДата кодирования : UTC 2018-07-23 19:37:23Программа кодирования : mkvmerge v8.0.0 ('Til The Day That I Die') 32bitБиблиотека кодирования : libebml v1.3.1 + libmatroska v1.4.2

ВидеоИдентификатор : 1Формат : AVCФормат/Информация : Advanced Video CodecПрофиль формата : [email protected]Настройки формата : CABAC / 3 Ref FramesПараметр CABAC формата : ДаПараметр RefFrames формата : 3 кадраИдентификатор кодека : V_MPEG4/ISO/AVCПродолжительность : 42 м. 37 с.Вид битрейта : ПеременныйБитрейт : 7500 Кбит/секМаксимальный битрейт : 11,2 Мбит/секШирина : 1920 пикселейВысота : 1080 пикселейСоотношение сторон : 16:9Режим частоты кадров : ПостоянныйЧастота кадров : 25,000 кадров/секЦветовое пространство : YUVСубдискретизация насыщенности : 4:2:0Битовая глубина : 8 битТип развёртки : ПрогрессивнаяБит/(Пиксели*Кадры) : 0.145Размер потока : 2,22 Гбайт (97%)Библиотека кодирования : x264 core 148 r2714 2daf636Настройки программы : cabac=1 / ref=3 / deblock=1:0:0 / analyse=0x1:0x111 / me=umh / subme=10 / psy=1 / psy_rd=1.00:0.00 / mixed_ref=1 / me_range=24 / chroma_me=1 / trellis=2 / 8x8dct=0 / cqm=0 / deadzone=21,11 / fast_pskip=1 / chroma_qp_offset=-2 / threads=8 / lookahead_threads=1 / sliced_threads=0 / nr=0 / decimate=1 / interlaced=0 / bluray_compat=0 / stitchable=1 / constrained_intra=0 / bframes=2 / b_pyramid=0 / b_adapt=2 / b_bias=0 / direct=3 / weightb=1 / open_gop=0 / weightp=2 / keyint=50 / keyint_min=26 / scenecut=0 / intra_refresh=0 / rc_lookahead=50 / rc=2pass / mbtree=1 / bitrate=7500 / ratetol=1.0 / qcomp=0.50 / qpmin=6 / qpmax=51 / qpstep=4 / cplxblur=20.0 / qblur=0.5 / vbv_maxrate=11250 / vbv_bufsize=15000 / nal_hrd=vbr / filler=0 / ip_ratio=1.40 / aq=1:1.00Default : ДаForced : Нет

Аудио #1Идентификатор : 2Формат : AC-3Формат/Информация : Audio Coding 3Идентификатор кодека : A_AC3Продолжительность : 42 м. 38 с.Вид битрейта : ПостоянныйБитрейт : 128 Кбит/секКаналы : 2 каналаРасположение каналов : Front: L RЧастота : 48,0 КГцЧастота кадров : 31,250 кадров/сек (1536 SPF)Битовая глубина : 16 битМетод сжатия : С потерямиРазмер потока : 39,0 Мбайт (2%)Заголовок : rus 2.0Язык : RussianServiceKind/String : Complete MainDefault : ДаForced : Да

Аудио #2Идентификатор : 3Формат : E-AC-3Формат/Информация : Enhanced Audio Coding 3Идентификатор кодека : A_EAC3Продолжительность : 42 м. 38 с.Вид битрейта : ПостоянныйБитрейт : 128 Кбит/секКаналы : 2 каналаРасположение каналов : Front: L RЧастота : 48,0 КГцЧастота кадров : 187,500 кадров/сек (256 SPF)Метод сжатия : С потерямиРазмер потока : 39,0 Мбайт (2%)Заголовок : eng 2.0Язык : EnglishServiceKind/String : Complete MainDefault : НетForced : Нет

ТекстИдентификатор : 4Формат : UTF-8Идентификатор кодека : S_TEXT/UTF8Идентификатор кодека/Информация : UTF-8 Plain TextПродолжительность : 41 м. 39 с.Битрейт : 92 бит/секElementCount : 601Размер потока : 28,1 Кбайт (0%)Заголовок : eng SRTЯзык : EnglishDefault : НетForced : Нет


Трекер:  [ 24-Июл-2018 22:06 ]

  

Скачать .torrent

Размер .torrent файла 68 KB


Размер: 13.55 GB
Хэш (hash) релиза: 3b94c91a48d010269c23c5625c863a8abb5a8bb6
Подписка на обновления:

Торренты, похожие на Мифы и чудовища Myths & Monsters скачать торрент

Форум Название Автор Размер S L Добавлен
Документальные фильмы и телепередачи ·· Мифы и чудовища ( 6 серий из 6) / Myths & Monsters (Даниэль Контур) [2017, Документальный, исследования, мифология, HDTVRip 720p] Galfimbul 83765101757.8 GB 0 0 1518979410

21:43

18-Фев-18

Еще никто не оставлял запись к записи скачать торрент Мифы и чудовища Myths & Monsters . Будь первым!

!Обратная связь