Скачать через торрент Космос. Путешествие в будущее Фильм бесплатно в хорошем качестве torrent

Скачивайте на UnionPeer.org фильмы через торрент без регистрации. Новинки кино в хорошем качестве через торрент. На UnionPeer.org можно скачать через торрент фильмы 2014 и 2015 годов. Самые новые фильмы.

Скачать торрент Космос. Путешествие в будущее бесплатно через .torrent фильм мультфильм сериал

Статистика раздачи
Размер:  18.58 GB   |    Зарегистрирован:  4 месяца 28 дней   |    .torrent скачан:  41 раз   |   
Раздают:  1  
   
загрузка...
 
Автор Сообщение

Galfimbul

avatar Galfimbul


Космос. Путешествие в будущее / Espace, l'odyssee du futur

Год выпуска: 2016
Страна: Франция
Студия: Planete +, CNES
Жанр: Документальный, познавательный, космос
Продолжительность: 6 x ~ 00:56:29
Перевод: Студийный (одноголосый закадровый)
Доп. инфо о переводе: "Контентико"
Режиссер: Olivia Buffy / Оливия Баффи

Описание: Избранные земляне, кому удалось сделать полеты в космос своей профессией, могут рассказать массу удивительных историй! Космонавты МКС живут на высоте более 400 км над Землей, буквально вращаясь в пустоте, где регулярно возникают опасности. О внештатных ситуациях, выходе в открытый космос, сложнейших миссиях и других подробностях жизни в вакууме расскажет французский астронавт Томас Песке в цикле документальных фильмов.

Сэмпл: http://www.sendspace.com/file/xmczkz

Тип релиза: HDTV 1080i
Контейнер: MKV

Видео: 1920x1080 (16:9), 25 fps, AVC (x264), [email protected], 7188 kbps, 25fps, 0.139 bit/pixel
Аудио: Русский 48.0 KHz, AC3 6 ch (Front: L C R, Side: L R, LFE) ch, ~448.00 kbps avg
Complete name : F:\Наладки\Космос_путешествие в будущее\1. SOS_Космический мусор.mkvFormat : MatroskaFormat version : Version 4 / Version 2File size : 3.11 GiBDuration : 57 min 5 sOverall bit rate : 7 791 kb/sEncoded date : UTC 2018-03-31 09:42:24Writing application : mkvmerge v6.6.0 ('The Edge Of The In Between') built on Dec 1 2013 17:55:00Writing library : libebml v1.3.0 + libmatroska v1.4.1

VideoID : 1Format : AVCFormat/Info : Advanced Video CodecFormat profile : [email protected] settings : CABAC / 4 Ref FramesFormat settings, CABAC : YesFormat settings, ReFrames : 4 framesCodec ID : V_MPEG4/ISO/AVCDuration : 57 min 5 sBit rate : 7 188 kb/sWidth : 1 920 pixelsHeight : 1 080 pixelsDisplay aspect ratio : 16:9Frame rate mode : ConstantFrame rate : 25.000 FPSColor space : YUVChroma subsampling : 4:2:0Bit depth : 8 bitsScan type : InterlacedScan type, store method : Separated fieldsScan order : Top Field FirstBits/(Pixel*Frame) : 0.139Stream size : 2.87 GiB (92%)Default : YesForced : NoColor range : LimitedColor primaries : BT.709Transfer characteristics : BT.709Matrix coefficients : BT.709

AudioID : 2Format : AC-3Format/Info : Audio Coding 3Codec ID : A_AC3Duration : 57 min 5 sBit rate mode : ConstantBit rate : 448 kb/sChannel(s) : 6 channelsChannel positions : Front: L C R, Side: L R, LFESampling rate : 48.0 kHzFrame rate : 31.250 FPS (1536 SPF)Bit depth : 16 bitsCompression mode : LossyStream size : 183 MiB (6%)Language : RussianService kind : Complete MainDefault : YesForced : No

Complete name : F:\Наладки\Космос_путешествие в будущее\2. Страж Земли.mkvFormat : MatroskaFormat version : Version 4 / Version 2File size : 3.27 GiBDuration : 56 min 29 sOverall bit rate : 8 274 kb/sEncoded date : UTC 2018-03-31 09:46:12Writing application : mkvmerge v6.6.0 ('The Edge Of The In Between') built on Dec 1 2013 17:55:00Writing library : libebml v1.3.0 + libmatroska v1.4.1

VideoID : 1Format : AVCFormat/Info : Advanced Video CodecFormat profile : [email protected] settings : CABAC / 4 Ref FramesFormat settings, CABAC : YesFormat settings, ReFrames : 4 framesCodec ID : V_MPEG4/ISO/AVCDuration : 56 min 30 sBit rate : 7 661 kb/sWidth : 1 920 pixelsHeight : 1 080 pixelsDisplay aspect ratio : 16:9Frame rate mode : ConstantFrame rate : 25.000 FPSColor space : YUVChroma subsampling : 4:2:0Bit depth : 8 bitsScan type : InterlacedScan type, store method : Separated fieldsScan order : Top Field FirstBits/(Pixel*Frame) : 0.148Stream size : 3.02 GiB (93%)Default : YesForced : NoColor range : LimitedColor primaries : BT.709Transfer characteristics : BT.709Matrix coefficients : BT.709

AudioID : 2Format : AC-3Format/Info : Audio Coding 3Codec ID : A_AC3Duration : 56 min 29 sBit rate mode : ConstantBit rate : 448 kb/sChannel(s) : 6 channelsChannel positions : Front: L C R, Side: L R, LFESampling rate : 48.0 kHzFrame rate : 31.250 FPS (1536 SPF)Bit depth : 16 bitsCompression mode : LossyStream size : 181 MiB (5%)Language : RussianService kind : Complete MainDefault : YesForced : No

Complete name : F:\Наладки\Космос_путешествие в будущее\3. Одни в космосе.mkvFormat : MatroskaFormat version : Version 4 / Version 2File size : 2.97 GiBDuration : 53 min 21 sOverall bit rate : 7 965 kb/sEncoded date : UTC 2018-04-06 05:15:53Writing application : mkvmerge v6.6.0 ('The Edge Of The In Between') built on Dec 1 2013 17:55:00Writing library : libebml v1.3.0 + libmatroska v1.4.1

VideoID : 1Format : AVCFormat/Info : Advanced Video CodecFormat profile : [email protected] settings : CABAC / 4 Ref FramesFormat settings, CABAC : YesFormat settings, ReFrames : 4 framesCodec ID : V_MPEG4/ISO/AVCDuration : 53 min 21 sBit rate : 7 358 kb/sWidth : 1 920 pixelsHeight : 1 080 pixelsDisplay aspect ratio : 16:9Frame rate mode : ConstantFrame rate : 25.000 FPSColor space : YUVChroma subsampling : 4:2:0Bit depth : 8 bitsScan type : InterlacedScan type, store method : Separated fieldsScan order : Top Field FirstBits/(Pixel*Frame) : 0.142Stream size : 2.74 GiB (92%)Default : YesForced : NoColor range : LimitedColor primaries : BT.709Transfer characteristics : BT.709Matrix coefficients : BT.709

AudioID : 2Format : AC-3Format/Info : Audio Coding 3Codec ID : A_AC3Duration : 53 min 21 sBit rate mode : ConstantBit rate : 448 kb/sChannel(s) : 6 channelsChannel positions : Front: L C R, Side: L R, LFESampling rate : 48.0 kHzFrame rate : 31.250 FPS (1536 SPF)Bit depth : 16 bitsCompression mode : LossyStream size : 171 MiB (6%)Language : RussianService kind : Complete MainDefault : YesForced : No

Complete name : F:\Наладки\Космос_путешествие в будущее\4. На борту МКС.mkvFormat : MatroskaFormat version : Version 4 / Version 2File size : 2.88 GiBDuration : 52 min 15 sOverall bit rate : 7 888 kb/sEncoded date : UTC 2018-04-06 05:17:59Writing application : mkvmerge v6.6.0 ('The Edge Of The In Between') built on Dec 1 2013 17:55:00Writing library : libebml v1.3.0 + libmatroska v1.4.1

VideoID : 1Format : AVCFormat/Info : Advanced Video CodecFormat profile : [email protected] settings : CABAC / 4 Ref FramesFormat settings, CABAC : YesFormat settings, ReFrames : 4 framesCodec ID : V_MPEG4/ISO/AVCDuration : 52 min 15 sBit rate : 7 283 kb/sWidth : 1 920 pixelsHeight : 1 080 pixelsDisplay aspect ratio : 16:9Frame rate mode : ConstantFrame rate : 25.000 FPSColor space : YUVChroma subsampling : 4:2:0Bit depth : 8 bitsScan type : InterlacedScan type, store method : Separated fieldsScan order : Top Field FirstBits/(Pixel*Frame) : 0.140Stream size : 2.66 GiB (92%)Default : YesForced : NoColor range : LimitedColor primaries : BT.709Transfer characteristics : BT.709Matrix coefficients : BT.709

AudioID : 2Format : AC-3Format/Info : Audio Coding 3Codec ID : A_AC3Duration : 52 min 15 sBit rate mode : ConstantBit rate : 448 kb/sChannel(s) : 6 channelsChannel positions : Front: L C R, Side: L R, LFESampling rate : 48.0 kHzFrame rate : 31.250 FPS (1536 SPF)Bit depth : 16 bitsCompression mode : LossyStream size : 167 MiB (6%)Language : RussianService kind : Complete MainDefault : YesForced : No

Complete name : F:\Наладки\Космос_путешествие в будущее\5. Пункт назначения_Марс.mkvFormat : MatroskaFormat version : Version 4 / Version 2File size : 3.16 GiBDuration : 58 min 53 sOverall bit rate : 7 692 kb/sEncoded date : UTC 2018-04-20 17:33:14Writing application : mkvmerge v6.6.0 ('The Edge Of The In Between') built on Dec 1 2013 17:55:00Writing library : libebml v1.3.0 + libmatroska v1.4.1

VideoID : 1Format : AVCFormat/Info : Advanced Video CodecFormat profile : [email protected] settings : CABAC / 4 Ref FramesFormat settings, CABAC : YesFormat settings, ReFrames : 4 framesCodec ID : V_MPEG4/ISO/AVCDuration : 58 min 53 sBit rate : 7 091 kb/sWidth : 1 920 pixelsHeight : 1 080 pixelsDisplay aspect ratio : 16:9Frame rate mode : ConstantFrame rate : 25.000 FPSColor space : YUVChroma subsampling : 4:2:0Bit depth : 8 bitsScan type : InterlacedScan type, store method : Separated fieldsScan order : Top Field FirstBits/(Pixel*Frame) : 0.137Stream size : 2.92 GiB (92%)Default : YesForced : NoColor range : LimitedColor primaries : BT.709Transfer characteristics : BT.709Matrix coefficients : BT.709

AudioID : 2Format : AC-3Format/Info : Audio Coding 3Codec ID : A_AC3Duration : 58 min 53 sBit rate mode : ConstantBit rate : 448 kb/sChannel(s) : 6 channelsChannel positions : Front: L C R, Side: L R, LFESampling rate : 48.0 kHzFrame rate : 31.250 FPS (1536 SPF)Bit depth : 16 bitsCompression mode : LossyStream size : 189 MiB (6%)Language : RussianService kind : Complete MainDefault : YesForced : No

Complete name : F:\Наладки\Космос_путешествие в будущее\6. Жизнь в космосе.mkvFormat : MatroskaFormat version : Version 4 / Version 2File size : 3.20 GiBDuration : 56 min 24 sOverall bit rate : 8 117 kb/sEncoded date : UTC 2018-04-20 17:37:10Writing application : mkvmerge v6.6.0 ('The Edge Of The In Between') built on Dec 1 2013 17:55:00Writing library : libebml v1.3.0 + libmatroska v1.4.1

VideoID : 1Format : AVCFormat/Info : Advanced Video CodecFormat profile : [email protected] settings : CABAC / 4 Ref FramesFormat settings, CABAC : YesFormat settings, ReFrames : 4 framesCodec ID : V_MPEG4/ISO/AVCDuration : 56 min 24 sBit rate : 7 507 kb/sWidth : 1 920 pixelsHeight : 1 080 pixelsDisplay aspect ratio : 16:9Frame rate mode : ConstantFrame rate : 25.000 FPSColor space : YUVChroma subsampling : 4:2:0Bit depth : 8 bitsScan type : InterlacedScan type, store method : Separated fieldsScan order : Top Field FirstBits/(Pixel*Frame) : 0.145Stream size : 2.96 GiB (92%)Default : YesForced : NoColor range : LimitedColor primaries : BT.709Transfer characteristics : BT.709Matrix coefficients : BT.709

AudioID : 2Format : AC-3Format/Info : Audio Coding 3Codec ID : A_AC3Duration : 56 min 24 sBit rate mode : ConstantBit rate : 448 kb/sChannel(s) : 6 channelsChannel positions : Front: L C R, Side: L R, LFESampling rate : 48.0 kHzFrame rate : 31.250 FPS (1536 SPF)Bit depth : 16 bitsCompression mode : LossyStream size : 181 MiB (6%)Language : RussianService kind : Complete MainDefault : YesForced : No
1. SOS_Космический мусор / SOS Debris Spatiaux
2. Страж Земли / Sentinelle de la Terre
3. Одни в космосе? / Seuls dans l'espace ?
4. На борту МКС / A bord de llss
5. Пункт назначения Марс / Destination Mars
6. Жизнь в космосе / Vivre dans Lespase


Трекер:  [ 22-Июл-2018 19:06 ]

  

Скачать .torrent

Размер .torrent файла 93 KB


Размер: 18.58 GB
Хэш (hash) релиза: 300fbbeadcaf0f3b37087eccf25834289469b3fc
Подписка на обновления:

Еще никто не оставлял запись к записи скачать торрент Космос. Путешествие в будущее . Будь первым!

!Обратная связь