Скачать через торрент Не враги Фильм бесплатно в хорошем качестве torrent

Скачивайте на UnionPeer.org фильмы через торрент без регистрации. Новинки кино в хорошем качестве через торрент. На UnionPeer.org можно скачать через торрент фильмы 2014 и 2015 годов. Самые новые фильмы.

Скачать торрент Не враги бесплатно через .torrent фильм мультфильм сериал

Статистика раздачи
Размер:  3 GB   |    Зарегистрирован:  2 месяца 26 дней   |    .torrent скачан:  34 раза   |   
Раздают:  1  
   
загрузка...
 
Автор Сообщение

Galfimbul

avatar Galfimbul


Не враги

Страна: Россия
Студия: Телеканал "Россия", ВГТРК
Жанр: Документальный, история
Год выпуска: 2018
Продолжительность: 00:52:04
Режиссёр: Николай Сванидзе

Описание: Ко дню рождения Людмилы Михайловны Алексеевой, знаменитой участницы правозащитного движения в СССР и постсоветской России. Как воспринимаются события сталинской эпохи современными людьми. "Дело врачей" – последний процесс над очередными "врагами народа", задуманный Сталиным и не завершенный по причине его смерти. Действующие лица фильма – современные люди разных профессий и разных национальностей. Фильм основан на архивных документах, отражающих личное участие Сталина в конструировании дела врачей.

Доп. информация:
Автор релиза -
Источник - HDTV 1080i TS - моя запись с канала Россия-1 HD

Сэмпл: http://multi-up.com/1204378



Рекламы нет!

Качество видео: HDTV 1080i
Формат видео: TS

Видео: MPEG-4, 1920x1080 (16:9), 25.000 fps, 7640 kbps, 0.147 bit/pixel
Аудио: Русский МР2, 48000 Гц, 2ch, 192 kbps
ОбщееИдентификатор : 1 (0x1)Полное имя : D:\Не.Враги.2018.HDTV.1080i-ylnian.tsФормат : MPEG-TSРазмер файла : 3,00 ГбайтПродолжительность : 52 м. 3 с.Режим общего битрейта : ПеременныйОбщий поток : 8241 Кбит/сек

ВидеоИдентификатор : 1178 (0x49A)Идентификатор меню : 1138 (0x472)Формат : AVCФормат/Информация : Advanced Video CodecПрофиль формата : [email protected]Настройки формата : CABAC / 4 Ref FramesПараметр CABAC формата : ДаПараметр RefFrames формата : 4 кадраИдентификатор кодека : 27Продолжительность : 52 м. 3 с.Битрейт : 7640 Кбит/секШирина : 1920 пикселейВысота : 1080 пикселейСоотношение сторон : 16:9Частота кадров : 25,000 кадров/секСтандарт вещания : ComponentЦветовое пространство : YUVСубдискретизация насыщенности : 4:2:0Битовая глубина : 8 битТип развёртки : ЧересстрочнаяМетод сохранения типа развёртки : Раздельные поляПорядок развёртки : Верхнее поле первоеБит/(Пиксели*Кадры) : 0.147Размер потока : 2,78 Гбайт (93%)Цветовой диапазон : LimitedОсновные цвета : BT.709Характеристики трансфера : BT.709Коэффициенты матрицы : BT.709

АудиоИдентификатор : 1179 (0x49B)Идентификатор меню : 1138 (0x472)Формат : MPEG AudioВерсия формата : Version 1Профиль формата : Layer 2Идентификатор кодека : 3Продолжительность : 52 м. 3 с.Вид битрейта : ПостоянныйБитрейт : 192 Кбит/секКаналы : 2 каналаЧастота : 48,0 КГцЧастота кадров : 41,667 кадра/сек (1152 SPF)Метод сжатия : С потерямиЗадержка видео : -40 мс.Размер потока : 71,5 Мбайт (2%)Язык : Russian


Трекер:  [ 22-Июл-2018 08:36 ]

  

Скачать .torrent

Размер .torrent файла 15 KB


Размер: 3 GB
Хэш (hash) релиза: bbcda8d1a4caef5b34474a441294a96604d6dd52
Подписка на обновления:

Торренты, похожие на Не враги скачать торрент

Форум Название Автор Размер S L Добавлен
Зарубежные фильмы до 2016 ·· Не на своём месте / Мистер Питкин в тылу врага / The Square Peg (Джон Пэдди Кастэйрс / John Paddy Carstairs) [1956, Великобритания, комедия, DVDRip-AVC] dub Sub eng + original eng Galfimbul 14069089931.31 GB 0 0 1364810771

13:06

1-Апр-13

Еще никто не оставлял запись к записи скачать торрент Не враги . Будь первым!

!Обратная связь