Скачать через торрент Задорнов Михаил. Легко жить трудно Фильм бесплатно в хорошем качестве torrent

Скачивайте на UnionPeer.org фильмы через торрент без регистрации. Новинки кино в хорошем качестве через торрент. На UnionPeer.org можно скачать через торрент фильмы 2014 и 2015 годов. Самые новые фильмы.

Скачать торрент Задорнов Михаил. Легко жить трудно бесплатно через .torrent фильм мультфильм сериал

Статистика раздачи
Размер:  2.4 GB   |    Зарегистрирован:  2 месяца 27 дней   |    .torrent скачан:  42 раза   |   
Раздают:  1  
   
загрузка...
 
Автор Сообщение

Galfimbul

avatar Galfimbul


Задорнов Михаил. Легко жить трудно

Страна: Россия
Студия: Первый канал, Студия ГАЛАКОН
Жанр: Документальный, биография
Год выпуска: 2018
Продолжительность: 00:49:55
Режиссёр: Вера Травкина
В ролях: Елена Бомбина, Людмила Задорнова, Алексей Задорнов, Брендон Стоун, Максим Галкин, Лион Измайлов, Андрей Дементьев, Евгений Петросян, Алексей Кортнев, Сергей Безруков, Дмитрий Панченко, Виталий Сундаков, Вита Бреде, Наталья Завгородняя, Елена Бойко, Николай Преображенский, Светлана Столярова

Описание: В нашей стране нет человека, который не знал бы Михаила Задорнова. Мы цитируем его остроумные фразы и шутки, даже не задумываясь, кто их автор. Его юмор был феноменально актуальным: то, что утром обсуждали в новостях, вечером Задорнов выносил к зрителям. Казалось, нам известно все о его творчестве, гастролях, фильмах и личной жизни. Но на самом деле Задорнов был загадкой. Он никогда не посвящал широкую публику в подробности своей жизни: как проводил свободное время, с кем дружил, о чем мечтал и кого любил. Этот фильм даст нам ответы на многие загадки из жизни великого сатирика.

Доп. информация:
Автор релиза -
Источник - HDTV 1080i TS - моя запись с канала Первый HD

Сэмпл: http://multi-up.com/1204339



Рекламы нет!

Качество видео: HDTV 1080i
Формат видео: TS

Видео: MPEG-4, 1920x1080 (16:9), 25.000 fps, 5942 kbps, 0.115 bit/pixel
Аудио 1: Русский МР2, 48000 Гц, 2ch, 224 kbps
Аудио 2: Русский АС3, 48000 Гц, 2ch, 384 kbps
ОбщееИдентификатор : 1 (0x1)Полное имя : D:\Задорнов_Легко.жить.трудно.2018.HDTV.1080i-ylnian.tsФормат : MPEG-TSРазмер файла : 2,40 ГбайтПродолжительность : 49 м. 55 с.Режим общего битрейта : ПеременныйОбщий поток : 6897 Кбит/сек

ВидеоИдентификатор : 1902 (0x76E)Идентификатор меню : 92 (0x5C)Формат : AVCФормат/Информация : Advanced Video CodecПрофиль формата : [email protected]Настройки формата : CABAC / 3 Ref FramesПараметр CABAC формата : ДаПараметр RefFrames формата : 3 кадраИдентификатор кодека : 27Продолжительность : 49 м. 55 с.Битрейт : 5942 Кбит/секШирина : 1920 пикселейВысота : 1080 пикселейСоотношение сторон : 16:9Частота кадров : 25,000 кадров/секСтандарт вещания : ComponentЦветовое пространство : YUVСубдискретизация насыщенности : 4:2:0Битовая глубина : 8 битТип развёртки : ЧересстрочнаяМетод сохранения типа развёртки : Раздельные поляПорядок развёртки : Верхнее поле первоеБит/(Пиксели*Кадры) : 0.115Размер потока : 2,07 Гбайт (86%)Цветовой диапазон : LimitedОсновные цвета : BT.709Характеристики трансфера : BT.709Коэффициенты матрицы : BT.709

Аудио #1Идентификатор : 2902 (0xB56)Идентификатор меню : 92 (0x5C)Формат : MPEG AudioВерсия формата : Version 1Профиль формата : Layer 2Идентификатор кодека : 3Продолжительность : 49 м. 55 с.Вид битрейта : ПостоянныйБитрейт : 224 Кбит/секКаналы : 2 каналаЧастота : 48,0 КГцЧастота кадров : 41,667 кадра/сек (1152 SPF)Метод сжатия : С потерямиЗадержка видео : -80 мс.Размер потока : 80,0 Мбайт (3%)Язык : Russian

Аудио #2Идентификатор : 3902 (0xF3E)Идентификатор меню : 92 (0x5C)Формат : AC-3Формат/Информация : Audio Coding 3Идентификатор кодека : 6Продолжительность : 49 м. 55 с.Вид битрейта : ПостоянныйБитрейт : 384 Кбит/секКаналы : 6 каналовРасположение каналов : Front: L C R, Side: L R, LFEЧастота : 48,0 КГцЧастота кадров : 31,250 кадров/сек (1536 SPF)Битовая глубина : 16 битМетод сжатия : С потерямиЗадержка видео : -80 мс.Размер потока : 137 Мбайт (6%)Язык : RussianServiceKind/String : Complete Main


Трекер:  [ 21-Июл-2018 19:06 ]

  

Скачать .torrent

Размер .torrent файла 12 KB


Размер: 2.4 GB
Хэш (hash) релиза: ed64aee0dc65824bf1e4bdbfb451984f18f948c7
Подписка на обновления:

Торренты, похожие на Задорнов Михаил. Легко жить трудно скачать торрент

Форум Название Автор Размер S L Добавлен
Развлекательные телепередачи и шоу ·· Михаил Задорнов. "Трудно жить легко" (Михаил Задорнов) [2010 г., Юмор, SatRip] L 10504785921002 MB 0 0 1293736483

22:14

30-Дек-10

Еще никто не оставлял запись к записи скачать торрент Задорнов Михаил. Легко жить трудно . Будь первым!

!Обратная связь