Скачать через торрент Дикий Запад Wild West Фильм бесплатно в хорошем качестве torrent

Скачивайте на UnionPeer.org фильмы через торрент без регистрации. Новинки кино в хорошем качестве через торрент. На UnionPeer.org можно скачать через торрент фильмы 2014 и 2015 годов. Самые новые фильмы.

Скачать торрент Дикий Запад Wild West бесплатно через .torrent фильм мультфильм сериал

Статистика раздачи
Размер:  7.29 GB   |    Зарегистрирован:  4 месяца 29 дней   |    .torrent скачан:  50 раз   |   
Раздают:  1  
   
загрузка...
 
Автор Сообщение

Galfimbul

avatar Galfimbul


Дикий Запад / Wild West

Год выпуска: 2016
Страна: Великобритания
Студия: BBC
Жанр: документальный
Продолжительность: 00:59:45+00:49:36+00:51:37
Перевод: Студийный (одноголосый закадровый)
Доп. инфо о переводе: sdi media
Русские субтитры: нет

Режиссер: Patric Morris, Felisity Lanchester/Патрик Моррис,Фелисити Ланчестер

Описание: Добро пожаловать на Дикий Запад Америки, где живут первопроходцы и бандиты. Местная фауна крайне разнообразна: от проницательного койота до лихорадочной колибри, от могучего голубого кита до мустанга, от гигантских кактусов до знаменитого разлома Сан-Андреас. Исследование увлекательных мест Северной Америки - каньонов, гор и берегов.

Сэмпл: http://yadi.sk/i/ywgjaZGZ3ZRGTx

Тип релиза: HDTV 1080i
Контейнер: TS

Видео: AVC, PAL, 1920x1080, 16x9, ~6500 Кbps, 25fps
Аудио: Русский, MP2, 2Ch, 48KHz, 192kbps
ОбщееИдентификатор : 1 (0x1)Полное имя : H:\Wild West(HDLife)\Дикий Запад (3-я серия)HDLife.tsФормат : MPEG-TSРазмер файла : 2,56 ГбайтПродолжительность : 51 м. 37 с.Режим общего битрейта : ПеременныйОбщий поток : 7107 Кбит/сек

ВидеоИдентификатор : 323 (0x143)Идентификатор меню : 12103 (0x2F47)Формат : AVCФормат/Информация : Advanced Video CodecПрофиль формата : [email protected]Настройки формата : CABAC / 4 Ref FramesПараметр CABAC формата : ДаПараметр RefFrames формата : 4 кадраПараметр GOP формата : M=4, N=28Идентификатор кодека : 27Продолжительность : 51 м. 37 с.Битрейт : 6561 Кбит/секШирина : 1920 пикселейВысота : 1080 пикселейСоотношение сторон : 16:9Частота кадров : 25,000 кадров/секСтандарт вещания : ComponentЦветовое пространство : YUVСубдискретизация насыщенности : 4:2:0Битовая глубина : 8 битТип развёртки : ЧересстрочнаяМетод сохранения типа развёртки : Раздельные поляПорядок развёртки : Верхнее поле первоеБит/(Пиксели*Кадры) : 0.127Размер потока : 2,37 Гбайт (92%)Цветовой диапазон : LimitedОсновные цвета : BT.709Характеристики трансфера : BT.709Коэффициенты матрицы : BT.709

АудиоИдентификатор : 403 (0x193)Идентификатор меню : 12103 (0x2F47)Формат : MPEG AudioВерсия формата : Version 1Профиль формата : Layer 2Идентификатор кодека : 3Продолжительность : 51 м. 37 с.Вид битрейта : ПостоянныйБитрейт : 192 Кбит/секКаналы : 2 каналаЧастота : 48,0 КГцЧастота кадров : 41,667 кадра/сек (1152 SPF)Метод сжатия : С потерямиРазмер потока : 70,9 Мбайт (3%)Язык : Russian


Трекер:  [ 21-Июл-2018 16:06 ]

  

Скачать .torrent

Размер .torrent файла 37 KB


Размер: 7.29 GB
Хэш (hash) релиза: fc80054987eafe2e4f62fb7a375603af94dee3a2
Подписка на обновления:

Торренты, похожие на Дикий Запад Wild West скачать торрент

Форум Название Автор Размер S L Добавлен
Мультсериалы ·· Ковбои с Дикого Запада / Wild West C.O.W.-Boys of Moo Mesa / Сезон: 1 / Серии: 9, 12, 13 из 13 [1992, США, вестерн, VHSRip] MVO Galfimbul 11052225101.03 GB 0 0 1465817770

14:36

13-Июн-16

Зарубежные фильмы до 2016 ·· Дикий, дикий Вест / Дикий, дикий Запад / Wild Wild West (Барри Зонненфельд / Barry Sonnenfeld) [1999, США, фантастика, боевик, комедия, вестерн, BDRip-AVC] Dub + Eng, Sub (Rus + Eng) Galfimbul 34585945293.22 GB 0 0 1365321182

10:53

7-Апр-13

Зарубежные фильмы до 2016 ·· Дикий, дикий Вест / Дикий, дикий Запад / Wild Wild West (Барри Зонненфельд / Barry Sonnenfeld) [1999, США, фантастика, боевик, комедия, вестерн, BDRip] DUB L 778430464742 MB 0 0 1310965474

08:04

18-Июл-11

Зарубежные фильмы до 2016 ·· Дикий, дикий Вест / Дикий, дикий Запад / Wild Wild West (Барри Зонненфельд / Barry Sonnenfeld) [1999, США, фантастика, боевик, комедия, вестерн, BDRip] MVO Galfimbul 15581839361.45 GB 0 0 1309548831

22:33

1-Июл-11

Зарубежные фильмы до 2016 ·· Дикий, дикий Запад / Дикий, дикий Вест / Wild Wild West (Барри Зонненфельд / Barry Sonnenfeld) [1999, Фантастика, боевик, комедия, вестерн, BDRip] Dub Galfimbul 15653560321.46 GB 0 0 1365331005

13:36

7-Апр-13

Зарубежные фильмы до 2016 ·· Дикий, дикий Запад / Дикий, дикий Вест / Wild Wild West (Барри Зонненфельд / Barry Sonnenfeld) [1999 г., боевик, комедия, BDRip-AVC] от R.G. 25 Кадр L 36165605903.37 GB 0 0 1312616954

10:49

6-Авг-11

Зарубежные фильмы до 2016 ·· Дикий, дикий Запад / Дикий, дикий Вест / Wild Wild West (Барри Зонненфельд / Barry Sonnenfeld) [1999 г., боевик, комедия, Blu-ray (custom) 1080p | BD50] DUB + AVO Sub rus + original eng L 3138912423129.23 GB 0 0 1310965118

07:58

18-Июл-11

Зарубежные фильмы до 2016 ·· Дикий, дикий Запад / Дикий, дикий Вест / Wild Wild West (Барри Зонненфельд / Barry Sonnenfeld) [1999 г., боевик, комедия, BDRemux 1080p] L 2378075777322.15 GB 0 0 1310964826

07:53

18-Июл-11

Документальные фильмы и телепередачи ·· Дикий Запад Африки / Africa's Wild West (Франс Леопольд Шмелзер / Franz Leopold Schmelzer) [2014, Документальный, HDTV 1080i] Galfimbul 29878161322.78 GB 0 0 1469005696

12:08

20-Июл-16

Мультфильмы до 2016 ·· Алиса и Шоу Дикого Запада / Alice's Wild West Show (Уолт Дисней / Walt Disney) [1924, США, мультфильм, комедия, немое кино, DVDRip] original + rus sub Galfimbul 218406238208 MB 0 0 1452311853

06:57

9-Янв-16

Мультсериалы ·· Шериф Келли и Дикий Запад / Sheriff Callie's Wild West / Сезон: 1 / Серии: 1-23 из 23 (Джордж Эвелин, Денис Морелла / George Evelyn, Denis Morella) [2013, мультсериал, приключения, SATRip] DUB (Невафильм) Galfimbul 87432908808.14 GB 0 0 1420101342

11:35

1-Янв-15

Мультсериалы ·· Шериф Келли и Дикий Запад / Sheriff Callie's Wild West / Сезон: 1 / Серии: 1-23 из 23 (Джордж Эвелин, Денис Морелла / George Evelyn, Denis Morella) [2013-2014, детский мультсериал, приключения, DVB] DUB (Невафильм) Galfimbul 1078287769610.04 GB 0 0 1419098989

21:09

20-Дек-14

Документальные фильмы и телепередачи ·· Дикий Запад. Звериный вестерн / The Wild West. True Grit (Саймон Бойс / Simon Boyce) [2012, Документальный, HDTVRip] NatGeo L 554446848529 MB 0 0 1370637238

23:33

7-Июн-13

Документальные фильмы и телепередачи ·· National Geographic: Дикий Запад. Звериный вестерн / National Geographic: The Wild West. True Grit (Саймон Бойс / Simon Boyce) [2012, Документальный, HDTVRip 1080p] L 32189138253 GB 0 0 1370551144

23:39

6-Июн-13

Документальные фильмы и телепередачи ·· National Geographic: Дикий Запад. Ровно в полдень / National Geographic: The Wild West. High Noon (Энди Митчел / Andy Mitchell) [2012, Документальный, HDTVRip 1080p] Galfimbul 32105552542.99 GB 0 0 1369925251

17:47

30-Май-13

Еще никто не оставлял запись к записи скачать торрент Дикий Запад Wild West . Будь первым!

!Обратная связь