Скачать через торрент Разъяснения Фильм бесплатно в хорошем качестве torrent

Скачивайте на UnionPeer.org фильмы через торрент без регистрации. Новинки кино в хорошем качестве через торрент. На UnionPeer.org можно скачать через торрент фильмы 2014 и 2015 годов. Самые новые фильмы.

Скачать торрент Разъяснения бесплатно через .torrent фильм мультфильм сериал

Статистика раздачи
Размер:  1.83 GB   |    Зарегистрирован:  4 месяца 29 дней   |    .torrent скачан:  37 раз   |   
Раздают:  1  
   
загрузка...
 
Автор Сообщение

Galfimbul

avatar Galfimbul



Разъяснения / Explained
Год выпуска: 2018
Страна: США
Студия: Netflix, Vox Media
Жанр: Документальный, научно-популярный
Продолжительность: ~ 00:18:00
Перевод: Авторский (одноголосый закадровый)
Доп. инфо о переводе: Lord32x Studio
Cубтитры: русские, английские
Описание: Документальный сериал, в котором рассматриваются современные вопросы сегодняшнего дня. Эта просветительская серия от Vox раскалывается на широкий круг тем, таких как рост криптовалюты, почему диеты терпят неудачу и дикий мир K-pop.
Сэмпл: http://multi-up.com/1204311
Тип релиза: WEB-DL 1080p
Контейнер: MKV
Видео: AVC, 1920x1080 (16:9), 6800 kbps, 23,976 fps
Аудио 1: Русский / AC3, 6 channels, 48 kHz, 320 kbps
Аудио 2: Английский / AC3, 6 channels, 48 kHz, 384 kbps
Формат субтитров: softsub (SRT)
2 серия. ДНК на заказ
9 серия. Внеземная жизнь
GeneralUnique ID : 197990358776755719482431599793550106059 (0x94F38E5A650683E2A7E3ADB9BC579DCB)Complete name : D:\Explained.S01\Explained.S01E09.Extraterrestrial.Life.WEB-DL.1080p.Lord32x.Studio.mkvFormat : MatroskaFormat version : Version 2File size : 942 MiBDuration : 18 min 53 sOverall bit rate mode : VariableOverall bit rate : 6 974 kb/sEncoded date : UTC 2018-07-19 18:48:20Writing application : mkvmerge v7.8.0 ('River Man') 32bit built on Apr 3 2015 12:11:22Writing library : libebml v1.3.1 + libmatroska v1.4.2Cover : YesAttachments : Cover.jpeg

VideoID : 1Format : AVCFormat/Info : Advanced Video CodecFormat profile : [email protected] settings : CABAC / 3 Ref FramesFormat settings, CABAC : YesFormat settings, ReFrames : 3 framesCodec ID : V_MPEG4/ISO/AVCDuration : 18 min 53 sBit rate mode : VariableBit rate : 6 490 kb/sMaximum bit rate : 9 735 kb/sWidth : 1 920 pixelsHeight : 1 080 pixelsDisplay aspect ratio : 16:9Frame rate mode : ConstantFrame rate : 23.976 (24000/1001) FPSColor space : YUVChroma subsampling : 4:2:0Bit depth : 8 bitsScan type : ProgressiveBits/(Pixel*Frame) : 0.131Stream size : 859 MiB (91%)Writing library : x264 core 148 r2715 7e75228Encoding settings : cabac=1 / ref=3 / deblock=1:0:0 / analyse=0x1:0x111 / me=umh / subme=10 / psy=1 / psy_rd=1.00:0.00 / mixed_ref=1 / me_range=24 / chroma_me=1 / trellis=2 / 8x8dct=0 / cqm=0 / deadzone=21,11 / fast_pskip=1 / chroma_qp_offset=-2 / threads=8 / lookahead_threads=1 / sliced_threads=0 / nr=0 / decimate=1 / interlaced=0 / bluray_compat=0 / stitchable=1 / constrained_intra=0 / bframes=2 / b_pyramid=0 / b_adapt=2 / b_bias=0 / direct=3 / weightb=1 / open_gop=0 / weightp=2 / keyint=48 / keyint_min=25 / scenecut=0 / intra_refresh=0 / rc_lookahead=48 / rc=2pass / mbtree=1 / bitrate=6490 / ratetol=1.0 / qcomp=0.50 / qpmin=6 / qpmax=51 / qpstep=4 / cplxblur=20.0 / qblur=0.5 / vbv_maxrate=9735 / vbv_bufsize=12980 / nal_hrd=vbr / filler=0 / ip_ratio=1.40 / aq=1:1.00Default : YesForced : No

Audio #1ID : 2Format : AC-3Format/Info : Audio Coding 3Codec ID : A_AC3Duration : 18 min 53 sBit rate mode : ConstantBit rate : 96.0 kb/sChannel(s) : 6 channelsChannel positions : Front: L C R, Side: L R, LFESampling rate : 48.0 kHzFrame rate : 31.250 FPS (1536 SPF)Bit depth : 16 bitsCompression mode : LossyStream size : 13.0 MiB (1%)Title : Lord32x StudioLanguage : RussianService kind : Complete MainDefault : YesForced : Yes

Audio #2ID : 3Format : AC-3Format/Info : Audio Coding 3Codec ID : A_AC3Duration : 18 min 53 sBit rate mode : ConstantBit rate : 384 kb/sChannel(s) : 6 channelsChannel positions : Front: L C R, Side: L R, LFESampling rate : 48.0 kHzFrame rate : 31.250 FPS (1536 SPF)Bit depth : 16 bitsCompression mode : LossyStream size : 51.9 MiB (6%)Title : OriginalLanguage : EnglishService kind : Complete MainDefault : NoForced : No

Text #1ID : 4Format : UTF-8Codec ID : S_TEXT/UTF8Codec ID/Info : UTF-8 Plain TextLanguage : RussianDefault : NoForced : No

Text #2ID : 5Format : UTF-8Codec ID : S_TEXT/UTF8Codec ID/Info : UTF-8 Plain TextLanguage : EnglishDefault : NoForced : No


Трекер:  [ 21-Июл-2018 13:36 ]

  

Скачать .torrent

Размер .torrent файла 19 KB


Размер: 1.83 GB
Хэш (hash) релиза: 1780e24c1d30e46c6997b7b0897ea1243b7ec762
Подписка на обновления:

Еще никто не оставлял запись к записи скачать торрент Разъяснения . Будь первым!

!Обратная связь