Скачать через торрент Италиана. Тележурнал Italiana. TV Magazine Фильм бесплатно в хорошем качестве torrent

Скачивайте на UnionPeer.org фильмы через торрент без регистрации. Новинки кино в хорошем качестве через торрент. На UnionPeer.org можно скачать через торрент фильмы 2014 и 2015 годов. Самые новые фильмы.

Скачать торрент Италиана. Тележурнал Italiana. TV Magazine бесплатно через .torrent фильм мультфильм сериал

Статистика раздачи
Размер:  7.32 GB   |    Зарегистрирован:  2 месяца 28 дней   |    .torrent скачан:  44 раза   |   
Раздают:  1  
   
загрузка...
 
Автор Сообщение

Galfimbul

avatar Galfimbul


Италиана. Тележурнал / Italiana. TV Magazine

Год выпуска: 2017
Страна: Италия
Студия: Rai
Жанр: документальный
Продолжительность: 6x ~ 00:22:00
Перевод: Профессиональный (многоголосый закадровый)
Доп. инфо о переводе: sdi media
Описание: Ведущая Каролина де Доминико в нескольких рубриках тележурнала рассказывает зрителям об уникальных особенностях того или иного региона Италии, гастрономических изысках и туристических маршрутах этого места. Вы побываете в Венеции, Неаполе, Палермо и других областях Италии.

Сэмпл: http://yadi.sk/i/zGKaBB063ZPjvU

Тип релиза: HDTV 1080i
Контейнер: TS

Видео: AVC, PAL, 1920x1080, 16x9, ~7300 Кbps, 25fps
Аудио: Русский, MP2, 2Ch, 48KHz, 192kbps
ОбщееИдентификатор : 1 (0x1)Полное имя : H:\Италиана. Тележурнал\Италиана. Тележурнал (Венеция)HDLife.tsФормат : MPEG-TSРазмер файла : 1,27 ГбайтПродолжительность : 21 м. 35 с.Режим общего битрейта : ПеременныйОбщий поток : 8424 Кбит/сек

ВидеоИдентификатор : 256 (0x100)Идентификатор меню : 1 (0x1)Формат : AVCФормат/Информация : Advanced Video CodecПрофиль формата : [email protected]Настройки формата : CABAC / 4 Ref FramesПараметр CABAC формата : ДаПараметр RefFrames формата : 4 кадраИдентификатор кодека : 27Продолжительность : 21 м. 34 с.Битрейт : 7814 Кбит/секШирина : 1920 пикселейВысота : 1080 пикселейСоотношение сторон : 16:9Частота кадров : 25,000 кадров/секСтандарт вещания : ComponentЦветовое пространство : YUVСубдискретизация насыщенности : 4:2:0Битовая глубина : 8 битТип развёртки : ЧересстрочнаяМетод сохранения типа развёртки : Раздельные поляПорядок развёртки : Верхнее поле первоеБит/(Пиксели*Кадры) : 0.151Размер потока : 1,18 Гбайт (93%)Цветовой диапазон : LimitedОсновные цвета : BT.709Характеристики трансфера : BT.709Коэффициенты матрицы : BT.709

АудиоИдентификатор : 257 (0x101)Идентификатор меню : 1 (0x1)Формат : MPEG AudioВерсия формата : Version 1Профиль формата : Layer 2Идентификатор кодека : 3Продолжительность : 21 м. 34 с.Вид битрейта : ПостоянныйБитрейт : 192 Кбит/секКаналы : 2 каналаЧастота : 48,0 КГцЧастота кадров : 41,667 кадра/сек (1152 SPF)Метод сжатия : С потерямиЗадержка видео : -120 мс.Размер потока : 29,6 Мбайт (2%)Язык : Russian


Трекер:  [ 20-Июл-2018 17:36 ]

  

Скачать .torrent

Размер .torrent файла 37 KB


Размер: 7.32 GB
Хэш (hash) релиза: f7d96382b904a167e771ec3b9b88a0b97e43d28b
Подписка на обновления:

Еще никто не оставлял запись к записи скачать торрент Италиана. Тележурнал Italiana. TV Magazine . Будь первым!

!Обратная связь